  0
SECTION
  2
HEADER
  9
$ACADVER
  1
AC1015
  9
$ACADMAINTVER
 70
     6
  9
$DWGCODEPAGE
  3
DOS932
  9
$INSBASE
 10
0.0
 20
0.0
 30
0.0
  9
$EXTMIN
 10
0.0
 20
0.0
 30
0.0
  9
$EXTMAX
 10
420.0
 20
297.0
 30
0.0
  9
$LIMMIN
 10
0.0
 20
0.0
  9
$LIMMAX
 10
420.0
 20
297.0
  9
$ORTHOMODE
 70
     0
  9
$REGENMODE
 70
     1
  9
$FILLMODE
 70
     1
  9
$QTEXTMODE
 70
     0
  9
$MIRRTEXT
 70
     1
  9
$LTSCALE
 40
1.0
  9
$ATTMODE
 70
     1
  9
$TEXTSIZE
 40
4.2333333333
  9
$TRACEWID
 40
1.0
  9
$TEXTSTYLE
  7
Standard
  9
$CLAYER
  8
0
  9
$CELTYPE
  6
ByLayer
  9
$CECOLOR
 62
   256
  9
$CELTSCALE
 40
1.0
  9
$DISPSILH
 70
     0
  9
$DIMSCALE
 40
1.0
  9
$DIMASZ
 40
3.0
  9
$DIMEXO
 40
1.0
  9
$DIMDLI
 40
3.75
  9
$DIMRND
 40
0.0
  9
$DIMDLE
 40
0.0
  9
$DIMEXE
 40
1.0
  9
$DIMTP
 40
0.0
  9
$DIMTM
 40
0.0
  9
$DIMTXT
 40
4.2333333333
  9
$DIMCEN
 40
2.5
  9
$DIMTSZ
 40
0.0
  9
$DIMTOL
 70
     0
  9
$DIMLIM
 70
     0
  9
$DIMTIH
 70
     1
  9
$DIMTOH
 70
     1
  9
$DIMSE1
 70
     0
  9
$DIMSE2
 70
     0
  9
$DIMTAD
 70
     1
  9
$DIMZIN
 70
     0
  9
$DIMBLK
  1

  9
$DIMASO
 70
     1
  9
$DIMSHO
 70
     1
  9
$DIMPOST
  1

  9
$DIMAPOST
  1

  9
$DIMALT
 70
     0
  9
$DIMALTD
 70
     3
  9
$DIMALTF
 40
0.0393700787
  9
$DIMLFAC
 40
5.0
  9
$DIMTOFL
 70
     1
  9
$DIMTVP
 40
0.0
  9
$DIMTIX
 70
     0
  9
$DIMSOXD
 70
     0
  9
$DIMSAH
 70
     0
  9
$DIMBLK1
  1

  9
$DIMBLK2
  1

  9
$DIMSTYLE
  2
ISO-25
  9
$DIMCLRD
 70
     0
  9
$DIMCLRE
 70
     0
  9
$DIMCLRT
 70
     0
  9
$DIMTFAC
 40
1.0
  9
$DIMGAP
 40
1.524
  9
$DIMJUST
 70
     0
  9
$DIMSD1
 70
     0
  9
$DIMSD2
 70
     0
  9
$DIMTOLJ
 70
     0
  9
$DIMTZIN
 70
     0
  9
$DIMALTZ
 70
     0
  9
$DIMALTTZ
 70
     0
  9
$DIMUPT
 70
     0
  9
$DIMDEC
 70
     1
  9
$DIMTDEC
 70
     1
  9
$DIMALTU
 70
     2
  9
$DIMALTTD
 70
     3
  9
$DIMTXSTY
  7
Standard
  9
$DIMAUNIT
 70
     0
  9
$DIMADEC
 70
     0
  9
$DIMALTRND
 40
0.0
  9
$DIMAZIN
 70
     0
  9
$DIMDSEP
 70
    44
  9
$DIMATFIT
 70
     3
  9
$DIMFRAC
 70
     0
  9
$DIMLDRBLK
  1

  9
$DIMLUNIT
 70
     2
  9
$DIMLWD
 70
    -2
  9
$DIMLWE
 70
    -2
  9
$DIMTMOVE
 70
     0
  9
$LUNITS
 70
     2
  9
$LUPREC
 70
     1
  9
$SKETCHINC
 40
1.0
  9
$FILLETRAD
 40
10.0
  9
$AUNITS
 70
     0
  9
$AUPREC
 70
     0
  9
$MENU
  1
.
  9
$ELEVATION
 40
0.0
  9
$PELEVATION
 40
0.0
  9
$THICKNESS
 40
0.0
  9
$LIMCHECK
 70
     0
  9
$CHAMFERA
 40
0.0
  9
$CHAMFERB
 40
0.0
  9
$CHAMFERC
 40
0.0
  9
$CHAMFERD
 40
0.0
  9
$SKPOLY
 70
     0
  9
$TDCREATE
 40
2459065.487213947
  9
$TDUCREATE
 40
2459065.112213947
  9
$TDUPDATE
 40
2459065.487215799
  9
$TDUUPDATE
 40
2459065.112215799
  9
$TDINDWG
 40
0.0000000116
  9
$TDUSRTIMER
 40
0.0000000116
  9
$USRTIMER
 70
     1
  9
$ANGBASE
 50
0.0
  9
$ANGDIR
 70
     0
  9
$PDMODE
 70
     0
  9
$PDSIZE
 40
-1.0
  9
$PLINEWID
 40
0.0
  9
$SPLFRAME
 70
     0
  9
$SPLINETYPE
 70
     6
  9
$SPLINESEGS
 70
     8
  9
$HANDSEED
  5
39D
  9
$SURFTAB1
 70
     6
  9
$SURFTAB2
 70
     6
  9
$SURFTYPE
 70
     6
  9
$SURFU
 70
     6
  9
$SURFV
 70
     6
  9
$UCSBASE
  2

  9
$UCSNAME
  2

  9
$UCSORG
 10
0.0
 20
0.0
 30
0.0
  9
$UCSXDIR
 10
1.0
 20
0.0
 30
0.0
  9
$UCSYDIR
 10
0.0
 20
1.0
 30
0.0
  9
$UCSORTHOREF
  2

  9
$UCSORTHOVIEW
 70
     0
  9
$UCSORGTOP
 10
0.0
 20
0.0
 30
0.0
  9
$UCSORGBOTTOM
 10
0.0
 20
0.0
 30
0.0
  9
$UCSORGLEFT
 10
0.0
 20
0.0
 30
0.0
  9
$UCSORGRIGHT
 10
0.0
 20
0.0
 30
0.0
  9
$UCSORGFRONT
 10
0.0
 20
0.0
 30
0.0
  9
$UCSORGBACK
 10
0.0
 20
0.0
 30
0.0
  9
$PUCSBASE
  2

  9
$PUCSNAME
  2

  9
$PUCSORG
 10
0.0
 20
0.0
 30
0.0
  9
$PUCSXDIR
 10
1.0
 20
0.0
 30
0.0
  9
$PUCSYDIR
 10
0.0
 20
1.0
 30
0.0
  9
$PUCSORTHOREF
  2

  9
$PUCSORTHOVIEW
 70
     0
  9
$PUCSORGTOP
 10
0.0
 20
0.0
 30
0.0
  9
$PUCSORGBOTTOM
 10
0.0
 20
0.0
 30
0.0
  9
$PUCSORGLEFT
 10
0.0
 20
0.0
 30
0.0
  9
$PUCSORGRIGHT
 10
0.0
 20
0.0
 30
0.0
  9
$PUCSORGFRONT
 10
0.0
 20
0.0
 30
0.0
  9
$PUCSORGBACK
 10
0.0
 20
0.0
 30
0.0
  9
$USERI1
 70
     0
  9
$USERI2
 70
     0
  9
$USERI3
 70
     0
  9
$USERI4
 70
     0
  9
$USERI5
 70
     0
  9
$USERR1
 40
0.0
  9
$USERR2
 40
0.0
  9
$USERR3
 40
0.0
  9
$USERR4
 40
0.0
  9
$USERR5
 40
0.0
  9
$WORLDVIEW
 70
     1
  9
$SHADEDGE
 70
     3
  9
$SHADEDIF
 70
    70
  9
$TILEMODE
 70
     1
  9
$MAXACTVP
 70
    64
  9
$PINSBASE
 10
0.0
 20
0.0
 30
0.0
  9
$PLIMCHECK
 70
     0
  9
$PEXTMIN
 10
1.0000000000E+20
 20
1.0000000000E+20
 30
1.0000000000E+20
  9
$PEXTMAX
 10
-1.0000000000E+20
 20
-1.0000000000E+20
 30
-1.0000000000E+20
  9
$PLIMMIN
 10
0.0
 20
0.0
  9
$PLIMMAX
 10
420.0
 20
297.0
  9
$UNITMODE
 70
     0
  9
$VISRETAIN
 70
     1
  9
$PLINEGEN
 70
     0
  9
$PSLTSCALE
 70
     1
  9
$TREEDEPTH
 70
  3020
  9
$CMLSTYLE
  2
Standard
  9
$CMLJUST
 70
     0
  9
$CMLSCALE
 40
20.0
  9
$PROXYGRAPHICS
 70
     1
  9
$MEASUREMENT
 70
     1
  9
$CELWEIGHT
370
    -1
  9
$ENDCAPS
280
     0
  9
$JOINSTYLE
280
     0
  9
$LWDISPLAY
290
     1
  9
$INSUNITS
 70
     4
  9
$HYPERLINKBASE
  1

  9
$STYLESHEET
  1

  9
$XEDIT
290
     1
  9
$CEPSNTYPE
380
     0
  9
$PSTYLEMODE
290
     1
  9
$FINGERPRINTGUID
  2
{207B9F7A-9DAD-4CE8-ACC7-032948259114}
  9
$VERSIONGUID
  2
{FAEB1C32-E019-11D5-929B-00C0DF256EC4}
  9
$EXTNAMES
290
     1
  9
$PSVPSCALE
 40
0.0
  9
$OLESTARTUP
290
     0
  0
ENDSEC
  0
SECTION
  2
CLASSES
  0
CLASS
  1
ACDBDICTIONARYWDFLT
  2
AcDbDictionaryWithDefault
  3
ObjectDBX Classes
 90
        0
280
     0
281
     0
  0
CLASS
  1
VISUALSTYLE
  2
AcDbVisualStyle
  3
ObjectDBX Classes
 90
     4095
280
     0
281
     0
  0
CLASS
  1
MATERIAL
  2
AcDbMaterial
  3
ObjectDBX Classes
 90
     1153
280
     0
281
     0
  0
CLASS
  1
SCALE
  2
AcDbScale
  3
ObjectDBX Classes
 90
     1153
280
     0
281
     0
  0
CLASS
  1
TABLESTYLE
  2
AcDbTableStyle
  3
ObjectDBX Classes
 90
     4095
280
     0
281
     0
  0
CLASS
  1
MLEADERSTYLE
  2
AcDbMLeaderStyle
  3
ACDB_MLEADERSTYLE_CLASS
 90
     4095
280
     0
281
     0
  0
CLASS
  1
SUN
  2
AcDbSun
  3
SCENEOE
 90
     1153
280
     0
281
     0
  0
CLASS
  1
ACDBPLACEHOLDER
  2
AcDbPlaceHolder
  3
ObjectDBX Classes
 90
        0
280
     0
281
     0
  0
CLASS
  1
LAYOUT
  2
AcDbLayout
  3
ObjectDBX Classes
 90
        0
280
     0
281
     0
  0
ENDSEC
  0
SECTION
  2
TABLES
  0
TABLE
  2
VPORT
  5
8
330
0
100
AcDbSymbolTable
 70
     1
  0
VPORT
  5
29
330
8
100
AcDbSymbolTableRecord
100
AcDbViewportTableRecord
  2
*Active
 70
     0
 10
0.0
 20
0.0
 11
1.0
 21
1.0
 12
210.0
 22
148.5
 13
0.0
 23
0.0
 14
10.0
 24
10.0
 15
10.0
 25
10.0
 16
0.0
 26
0.0
 36
1.0
 17
0.0
 27
0.0
 37
0.0
 40
297.0
 41
1.4141414141
 42
50.0
 43
0.0
 44
0.0
 50
0.0
 51
0.0
 71
     0
 72
  2000
 73
     1
 74
     3
 75
     0
 76
     0
 77
     0
 78
     0
281
     0
 65
     1
110
0.0
120
0.0
130
0.0
111
1.0
121
0.0
131
0.0
112
0.0
122
1.0
132
0.0
 79
     0
146
0.0
  0
ENDTAB
  0
TABLE
  2
LTYPE
  5
5
330
0
100
AcDbSymbolTable
 70
     6
  0
LTYPE
  5
14
330
5
100
AcDbSymbolTableRecord
100
AcDbLinetypeTableRecord
  2
ByBlock
 70
     0
  3

 72
    65
 73
     0
 40
0.0
  0
LTYPE
  5
15
330
5
100
AcDbSymbolTableRecord
100
AcDbLinetypeTableRecord
  2
ByLayer
 70
     0
  3

 72
    65
 73
     0
 40
0.0
  0
LTYPE
  5
16
330
5
100
AcDbSymbolTableRecord
100
AcDbLinetypeTableRecord
  2
Continuous
 70
     0
  3
Solid line
 72
    65
 73
     0
 40
0.0
  0
LTYPE
  5
6E
330
5
100
AcDbSymbolTableRecord
100
AcDbLinetypeTableRecord
  2
HIDDEN
 70
     0
  3
Hidden __ __ __ __ __ __ __ __ __ __ __ __ __ __
 72
    65
 73
     2
 40
1.905
 49
1.27
 74
     0
 49
-0.635
 74
     0
  0
LTYPE
  5
6F
330
5
100
AcDbSymbolTableRecord
100
AcDbLinetypeTableRecord
  2
PHANTOM
 70
     0
  3
Phantom ______  __  __  ______  __  __  ______
 72
    65
 73
     6
 40
12.7
 49
6.35
 74
     0
 49
-1.27
 74
     0
 49
1.27
 74
     0
 49
-1.27
 74
     0
 49
1.27
 74
     0
 49
-1.27
 74
     0
  0
LTYPE
  5
70
330
5
100
AcDbSymbolTableRecord
100
AcDbLinetypeTableRecord
  2
CENTER
 70
     0
  3
Center ____ _ ____ _ ____ _ ____ _ ____ _ ____
 72
    65
 73
     4
 40
10.16
 49
6.35
 74
     0
 49
-1.27
 74
     0
 49
1.27
 74
     0
 49
-1.27
 74
     0
  0
LTYPE
  5
71
330
5
100
AcDbSymbolTableRecord
100
AcDbLinetypeTableRecord
  2
CENTERX2
 70
     0
  3
Center (2x) ________  __  ________  __  _____
 72
    65
 73
     4
 40
20.32
 49
12.7
 74
     0
 49
-2.54
 74
     0
 49
2.54
 74
     0
 49
-2.54
 74
     0
  0
LTYPE
  5
72
330
5
100
AcDbSymbolTableRecord
100
AcDbLinetypeTableRecord
  2
DOT2
 70
     0
  3
Dot (.5x) ........................................
 72
    65
 73
     2
 40
0.635
 49
0.0
 74
     0
 49
-0.635
 74
     0
  0
ENDTAB
  0
TABLE
  2
LAYER
  5
2
330
0
100
AcDbSymbolTable
 70
    22
  0
LAYER
  5
10
330
2
100
AcDbSymbolTableRecord
100
AcDbLayerTableRecord
  2
0
 70
     0
 62
     7
  6
Continuous
370
    -3
390
F
  0
LAYER
  5
73
330
2
100
AcDbSymbolTableRecord
100
AcDbLayerTableRecord
  2
SLD-0
 70
     0
 62
   179
  6
Continuous
370
    -3
390
F
  0
LAYER
  5
74
330
2
100
AcDbSymbolTableRecord
100
AcDbLayerTableRecord
  2
AM_0
 70
     0
 62
   179
  6
Continuous
370
    35
390
F
  0
LAYER
  5
75
330
2
100
AcDbSymbolTableRecord
100
AcDbLayerTableRecord
  2
AM_2
 70
     0
 62
   140
  6
Continuous
370
    35
390
F
  0
LAYER
  5
76
330
2
100
AcDbSymbolTableRecord
100
AcDbLayerTableRecord
  2
AM_1
 70
     0
 62
    40
  6
Continuous
370
    35
390
F
  0
LAYER
  5
77
330
2
100
AcDbSymbolTableRecord
100
AcDbLayerTableRecord
  2
AM_3
 70
     0
 62
     6
  6
Continuous
370
    35
390
F
  0
LAYER
  5
78
330
2
100
AcDbSymbolTableRecord
100
AcDbLayerTableRecord
  2
AM_5
 70
     0
 62
     3
  6
Continuous
370
    25
390
F
  0
LAYER
  5
79
330
2
100
AcDbSymbolTableRecord
100
AcDbLayerTableRecord
  2
AM_BOR
 70
     0
 62
   179
  6
Continuous
370
    35
390
F
  0
LAYER
  5
7A
330
2
100
AcDbSymbolTableRecord
100
AcDbLayerTableRecord
  2
実線
 70
     0
 62
   179
  6
Continuous
370
    35
390
F
  0
LAYER
  5
7B
330
2
100
AcDbSymbolTableRecord
100
AcDbLayerTableRecord
  2
細線
 70
     0
 62
     1
  6
Continuous
370
    25
390
F
  0
LAYER
  5
7C
330
2
100
AcDbSymbolTableRecord
100
AcDbLayerTableRecord
  2
点線
 70
     0
 62
   179
  6
HIDDEN
370
    35
390
F
  0
LAYER
  5
7D
330
2
100
AcDbSymbolTableRecord
100
AcDbLayerTableRecord
  2
SLD-DEFPOINTS
 70
     0
 62
   179
  6
Continuous
370
    -3
390
F
  0
LAYER
  5
7E
330
2
100
AcDbSymbolTableRecord
100
AcDbLayerTableRecord
  2
AM_7
 70
     0
 62
     3
  6
Continuous
370
    25
390
F
  0
LAYER
  5
7F
330
2
100
AcDbSymbolTableRecord
100
AcDbLayerTableRecord
  2
251
 70
     0
 62
   179
  6
Continuous
370
    -3
390
F
  0
LAYER
  5
80
330
2
100
AcDbSymbolTableRecord
100
AcDbLayerTableRecord
  2
AM_4
 70
     0
 62
     3
  6
Continuous
370
    25
390
F
  0
LAYER
  5
81
330
2
100
AcDbSymbolTableRecord
100
AcDbLayerTableRecord
  2
AM_6
 70
     0
 62
     3
  6
Continuous
370
    25
390
F
  0
LAYER
  5
82
330
2
100
AcDbSymbolTableRecord
100
AcDbLayerTableRecord
  2
AM_8
 70
     0
 62
     1
  6
Continuous
370
    25
390
F
  0
LAYER
  5
83
330
2
100
AcDbSymbolTableRecord
100
AcDbLayerTableRecord
  2
AM_11
 70
     0
 62
     3
  6
Continuous
370
    25
390
F
  0
LAYER
  5
84
330
2
100
AcDbSymbolTableRecord
100
AcDbLayerTableRecord
  2
2
 70
     0
 62
   179
  6
Continuous
370
    -3
390
F
  0
LAYER
  5
85
330
2
100
AcDbSymbolTableRecord
100
AcDbLayerTableRecord
  2
5
 70
     0
 62
     2
  6
Continuous
370
    -3
390
F
  0
LAYER
  5
86
330
2
100
AcDbSymbolTableRecord
100
AcDbLayerTableRecord
  2
AM_10
 70
     0
 62
     3
  6
Continuous
370
    25
390
F
  0
LAYER
  5
87
330
2
100
AcDbSymbolTableRecord
100
AcDbLayerTableRecord
  2
レイヤー_1
 70
     0
 62
   160
  6
Continuous
370
    -3
390
F
  0
ENDTAB
  0
TABLE
  2
STYLE
  5
3
330
0
100
AcDbSymbolTable
 70
     2
  0
STYLE
  5
11
330
3
100
AcDbSymbolTableRecord
100
AcDbTextStyleTableRecord
  2
Standard
 70
     0
 40
0.0
 41
1.0
 50
0.0
 71
     0
 42
4.2333333333
  3
txt
  4
bigfont
  0
STYLE
  5
CA
330
3
100
AcDbSymbolTableRecord
100
AcDbTextStyleTableRecord
  2
SLDTEXTSTYLE0
 70
     0
 40
0.0
 41
0.7
 50
0.0
 71
     0
 42
4.2333333333
  3
TXT
  4
bigfont
  0
ENDTAB
  0
TABLE
  2
VIEW
  5
6
330
0
100
AcDbSymbolTable
 70
     0
  0
ENDTAB
  0
TABLE
  2
UCS
  5
7
330
0
100
AcDbSymbolTable
 70
     0
  0
ENDTAB
  0
TABLE
  2
APPID
  5
9
330
0
100
AcDbSymbolTable
 70
     1
  0
APPID
  5
12
330
9
100
AcDbSymbolTableRecord
100
AcDbRegAppTableRecord
  2
ACAD
 70
     0
  0
ENDTAB
  0
TABLE
  2
DIMSTYLE
  5
A
330
0
100
AcDbSymbolTable
 70
     3
100
AcDbDimStyleTable
  0
DIMSTYLE
105
27
330
A
100
AcDbSymbolTableRecord
100
AcDbDimStyleTableRecord
  2
ISO-25
 70
     0
 41
2.5
 42
0.625
 43
3.75
 44
1.25
 73
     0
 74
     0
 77
     1
 78
     8
140
2.5
141
2.5
143
0.0393700787
147
0.625
171
     3
172
     1
178
     0
271
     2
272
     2
274
     3
278
    44
283
     0
284
     8
340
11
  0
DIMSTYLE
105
2FF
102
{ACAD_REACTORS
330
2FE
330
30F
102
}
330
A
100
AcDbSymbolTableRecord
100
AcDbDimStyleTableRecord
  2
SLDDIMSTYLE0
 70
     0
 41
3.0
 44
0.0
 45
0.000000001
 73
     0
 74
     0
 77
     3
 78
    12
 79
     3
140
3.6380208333
147
0.9095052083
173
     1
178
     0
271
     1
272
     1
276
     2
284
    12
340
CA
341
300
343
300
344
300
  0
DIMSTYLE
105
31F
330
A
100
AcDbSymbolTableRecord
100
AcDbDimStyleTableRecord
  2
SLDDIMSTYLE1
 70
     0
 41
1.5
 44
0.0
 45
0.000000001
146
1.5
147
0.0
173
     1
178
     0
271
     0
272
     0
276
     2
340
11
341
320
343
320
344
320
  0
ENDTAB
  0
TABLE
  2
BLOCK_RECORD
  5
1
330
0
100
AcDbSymbolTable
 70
    16
  0
BLOCK_RECORD
  5
1F
330
1
100
AcDbSymbolTableRecord
100
AcDbBlockTableRecord
  2
*Model_Space
340
22
  0
BLOCK_RECORD
  5
1B
330
1
100
AcDbSymbolTableRecord
100
AcDbBlockTableRecord
  2
*Paper_Space
340
1E
  0
BLOCK_RECORD
  5
23
330
1
100
AcDbSymbolTableRecord
100
AcDbBlockTableRecord
  2
*Paper_Space0
340
26
  0
BLOCK_RECORD
  5
88
330
1
100
AcDbSymbolTableRecord
100
AcDbBlockTableRecord
  2
様式_0
340
0
102
{BLKREFS
331
267
102
}
  0
BLOCK_RECORD
  5
F2
330
1
100
AcDbSymbolTableRecord
100
AcDbBlockTableRecord
  2
tjmlogo_0
340
0
102
{BLKREFS
331
266
102
}
  0
BLOCK_RECORD
  5
279
330
1
100
AcDbSymbolTableRecord
100
AcDbBlockTableRecord
  2
SW_TABLEANNOTATION_0
340
0
102
{BLKREFS
331
2A0
102
}
  0
BLOCK_RECORD
  5
2A1
330
1
100
AcDbSymbolTableRecord
100
AcDbBlockTableRecord
  2
SW_BROKEN_VIEW_0
340
0
102
{BLKREFS
331
2A4
102
}
  0
BLOCK_RECORD
  5
300
330
1
100
AcDbSymbolTableRecord
100
AcDbBlockTableRecord
  2
_OPEN30
340
0
102
{BLKREFS
331
309
331
30A
331
313
331
314
102
}
  0
BLOCK_RECORD
  5
306
330
1
100
AcDbSymbolTableRecord
100
AcDbBlockTableRecord
  2
_D
340
0
  0
BLOCK_RECORD
  5
310
330
1
100
AcDbSymbolTableRecord
100
AcDbBlockTableRecord
  2
_D_1
340
0
  0
BLOCK_RECORD
  5
319
330
1
100
AcDbSymbolTableRecord
100
AcDbBlockTableRecord
  2
SW_NOTE_0
340
0
102
{BLKREFS
331
31E
102
}
  0
BLOCK_RECORD
  5
320
330
1
100
AcDbSymbolTableRecord
100
AcDbBlockTableRecord
  2
_DOT
340
0
  0
BLOCK_RECORD
  5
329
330
1
100
AcDbSymbolTableRecord
100
AcDbBlockTableRecord
  2
SW_NOTE_1
340
0
102
{BLKREFS
331
32E
102
}
  0
BLOCK_RECORD
  5
330
330
1
100
AcDbSymbolTableRecord
100
AcDbBlockTableRecord
  2
SW_NOTE_2
340
0
102
{BLKREFS
331
335
102
}
  0
BLOCK_RECORD
  5
337
330
1
100
AcDbSymbolTableRecord
100
AcDbBlockTableRecord
  2
SW_NOTE_3
340
0
102
{BLKREFS
331
33B
102
}
  0
BLOCK_RECORD
  5
33D
330
1
100
AcDbSymbolTableRecord
100
AcDbBlockTableRecord
  2
SW_NOTE_4
340
0
102
{BLKREFS
331
341
102
}
  0
BLOCK_RECORD
  5
391
330
1
100
AcDbSymbolTableRecord
100
AcDbBlockTableRecord
  2
SW_NOTE_5
340
0
102
{BLKREFS
331
395
102
}
  0
BLOCK_RECORD
  5
397
330
1
100
AcDbSymbolTableRecord
100
AcDbBlockTableRecord
  2
SW_NOTE_6
340
0
102
{BLKREFS
331
39B
102
}
  0
ENDTAB
  0
ENDSEC
  0
SECTION
  2
BLOCKS
  0
BLOCK
  5
20
330
1F
100
AcDbEntity
  8
0
100
AcDbBlockBegin
  2
*Model_Space
 70
     0
 10
0.0
 20
0.0
 30
0.0
  3
*Model_Space
  1

  0
ENDBLK
  5
21
330
1F
100
AcDbEntity
  8
0
100
AcDbBlockEnd
  0
BLOCK
  5
1C
330
1B
100
AcDbEntity
 67
     1
  8
0
100
AcDbBlockBegin
  2
*Paper_Space
 70
     0
 10
0.0
 20
0.0
 30
0.0
  3
*Paper_Space
  1

  0
ENDBLK
  5
1D
330
1B
100
AcDbEntity
 67
     1
  8
0
100
AcDbBlockEnd
  0
BLOCK
  5
24
330
23
100
AcDbEntity
  8
0
100
AcDbBlockBegin
  2
*Paper_Space0
 70
     0
 10
0.0
 20
0.0
 30
0.0
  3
*Paper_Space0
  1

  0
ENDBLK
  5
25
330
23
100
AcDbEntity
  8
0
100
AcDbBlockEnd
  0
BLOCK
  5
89
330
88
100
AcDbEntity
  8
0
100
AcDbBlockBegin
  2
様式_0
 70
     0
 10
0.0
 20
0.0
 30
0.0
  3
様式_0
  1

  0
CIRCLE
  5
8B
330
88
100
AcDbEntity
  8
AM_BOR
370
    18
100
AcDbCircle
 10
306.1370750877
 20
41.5000002116
 30
0.0
 40
3.015481132131658
  0
CIRCLE
  5
8C
330
88
100
AcDbEntity
  8
AM_BOR
370
    18
100
AcDbCircle
 10
306.1370750877
 20
41.5000002116
 30
0.0
 40
1.406380460907795
  0
LINE
  5
8D
330
88
100
AcDbEntity
  8
AM_BOR
370
    18
100
AcDbLine
 10
18.0
 20
6.5000002116
 30
0.0
 11
402.0
 21
6.5000002116
 31
0.0
  0
LINE
  5
8E
330
88
100
AcDbEntity
  8
AM_BOR
370
    18
100
AcDbLine
 10
402.0
 20
6.5000002116
 30
0.0
 11
402.0
 21
290.5000002116
 31
0.0
  0
LINE
  5
8F
330
88
100
AcDbEntity
  8
AM_BOR
370
    18
100
AcDbLine
 10
402.0
 20
290.5000002116
 30
0.0
 11
18.0
 21
290.5000002116
 31
0.0
  0
LINE
  5
90
330
88
100
AcDbEntity
  8
AM_BOR
370
    18
100
AcDbLine
 10
18.0
 20
290.5000002116
 30
0.0
 11
18.0
 21
6.5000002116
 31
0.0
  0
LINE
  5
91
330
88
100
AcDbEntity
  8
AM_BOR
370
    18
100
AcDbLine
 10
316.9999992408
 20
54.5000002116
 30
0.0
 11
402.0
 21
54.5000002116
 31
0.0
  0
LINE
  5
92
330
88
100
AcDbEntity
  8
AM_BOR
370
    18
100
AcDbLine
 10
359.4999992408
 20
21.5000002116
 30
0.0
 11
321.9999992408
 21
21.5000002116
 31
0.0
  0
LINE
  5
93
330
88
100
AcDbEntity
  8
AM_BOR
370
    18
100
AcDbLine
 10
229.0
 20
46.5000002116
 30
0.0
 11
402.0
 21
46.5000002116
 31
0.0
  0
LINE
  5
94
330
88
100
AcDbEntity
  8
AM_BOR
370
    18
100
AcDbLine
 10
228.9999992408
 20
36.5000002116
 30
0.0
 11
402.0
 21
36.5000002116
 31
0.0
  0
LINE
  5
95
330
88
100
AcDbEntity
  8
AM_BOR
370
    18
100
AcDbLine
 10
229.0
 20
16.5000002116
 30
0.0
 11
402.0
 21
16.5000002116
 31
0.0
  0
LINE
  5
96
330
88
100
AcDbEntity
  8
AM_BOR
370
    18
100
AcDbLine
 10
316.9999992408
 20
26.5000002116
 30
0.0
 11
402.0
 21
26.5000002116
 31
0.0
  0
LINE
  5
97
330
88
100
AcDbEntity
  8
AM_BOR
  6
HIDDEN
370
    18
100
AcDbLine
 10
233.9999992408
 20
41.5000002116
 30
0.0
 11
297.4186953658
 21
41.5000002116
 31
0.0
  0
LINE
  5
98
330
88
100
AcDbEntity
  8
AM_BOR
370
    18
100
AcDbLine
 10
228.9999992408
 20
31.5000002116
 30
0.0
 11
276.9999992408
 21
31.5000002116
 31
0.0
  0
LINE
  5
99
330
88
100
AcDbEntity
  8
AM_BOR
370
    18
100
AcDbLine
 10
229.0
 20
26.5000002116
 30
0.0
 11
316.9999992408
 21
26.5000002116
 31
0.0
  0
LINE
  5
9A
330
88
100
AcDbEntity
  8
AM_BOR
370
    18
100
AcDbLine
 10
229.0
 20
46.5000002116
 30
0.0
 11
229.0
 21
6.5000002116
 31
0.0
  0
LINE
  5
9B
330
88
100
AcDbEntity
  8
AM_BOR
370
    18
100
AcDbLine
 10
233.9999992408
 20
46.5000002116
 30
0.0
 11
233.9999992408
 21
36.5000002116
 31
0.0
  0
LINE
  5
9C
330
88
100
AcDbEntity
  8
AM_BOR
370
    18
100
AcDbLine
 10
240.9999992408
 20
36.5000002116
 30
0.0
 11
240.9999992408
 21
16.5000002116
 31
0.0
  0
LINE
  5
9D
330
88
100
AcDbEntity
  8
AM_BOR
370
    18
100
AcDbLine
 10
252.9999992408
 20
36.5000002116
 30
0.0
 11
252.9999992408
 21
16.5000002116
 31
0.0
  0
LINE
  5
9E
330
88
100
AcDbEntity
  8
AM_BOR
370
    18
100
AcDbLine
 10
264.9999984622
 20
36.5000002116
 30
0.0
 11
264.9999992408
 21
16.5000002116
 31
0.0
  0
LINE
  5
9F
330
88
100
AcDbEntity
  8
AM_BOR
  6
HIDDEN
370
    18
100
AcDbLine
 10
301.9999992408
 20
16.5000002116
 30
0.0
 11
301.9999992408
 21
6.4999997884
 31
0.0
  0
LINE
  5
A0
330
88
100
AcDbEntity
  8
AM_BOR
370
    18
100
AcDbLine
 10
318.9999992408
 20
16.5000002116
 30
0.0
 11
318.9999992408
 21
6.4999997884
 31
0.0
  0
LINE
  5
A1
330
88
100
AcDbEntity
  8
AM_BOR
370
    18
100
AcDbLine
 10
289.9999992408
 20
16.5000002116
 30
0.0
 11
289.9999992408
 21
6.4999997884
 31
0.0
  0
LINE
  5
A2
330
88
100
AcDbEntity
  8
AM_BOR
370
    18
100
AcDbLine
 10
284.9999992408
 20
16.5000002116
 30
0.0
 11
284.9999992408
 21
6.4999997884
 31
0.0
  0
LINE
  5
A3
330
88
100
AcDbEntity
  8
AM_BOR
370
    18
100
AcDbLine
 10
313.9999992408
 20
16.5000002116
 30
0.0
 11
313.9999992408
 21
6.4999997884
 31
0.0
  0
LINE
  5
A4
330
88
100
AcDbEntity
  8
AM_BOR
370
    18
100
AcDbLine
 10
276.9999992408
 20
21.5000002116
 30
0.0
 11
316.9999992408
 21
21.5000002116
 31
0.0
  0
LINE
  5
A5
330
88
100
AcDbEntity
  8
AM_BOR
370
    18
100
AcDbLine
 10
276.9999992408
 20
31.5000002116
 30
0.0
 11
316.9999992408
 21
31.5000002116
 31
0.0
  0
LINE
  5
A6
330
88
100
AcDbEntity
  8
AM_BOR
370
    18
100
AcDbLine
 10
276.9999992408
 20
36.5000002116
 30
0.0
 11
276.9999992408
 21
16.5000002116
 31
0.0
  0
LINE
  5
A7
330
88
100
AcDbEntity
  8
AM_BOR
370
    18
100
AcDbLine
 10
286.9999992408
 20
31.5000002116
 30
0.0
 11
286.9999992408
 21
16.5000002116
 31
0.0
  0
LINE
  5
A8
330
88
100
AcDbEntity
  8
AM_BOR
370
    18
100
AcDbLine
 10
321.9999992408
 20
54.5000002116
 30
0.0
 11
321.9999992408
 21
16.5000002116
 31
0.0
  0
LINE
  5
A9
330
88
100
AcDbEntity
  8
AM_BOR
370
    18
100
AcDbLine
 10
316.9999992408
 20
46.7500002116
 30
0.0
 11
316.9999992408
 21
16.5000002116
 31
0.0
  0
LINE
  5
AA
330
88
100
AcDbEntity
  8
AM_BOR
370
    18
100
AcDbLine
 10
304.9999992408
 20
26.5000002116
 30
0.0
 11
304.9999992408
 21
16.5000002116
 31
0.0
  0
LINE
  5
AB
330
88
100
AcDbEntity
  8
AM_BOR
370
    18
100
AcDbLine
 10
316.9999992408
 20
54.5000002116
 30
0.0
 11
316.9999992408
 21
46.7500002116
 31
0.0
  0
LINE
  5
AC
330
88
100
AcDbEntity
  8
AM_BOR
370
    18
100
AcDbLine
 10
402.0
 20
21.5000002116
 30
0.0
 11
364.4999992408
 21
21.5000002116
 31
0.0
  0
LINE
  5
AD
330
88
100
AcDbEntity
  8
AM_BOR
370
    18
100
AcDbLine
 10
336.9999992408
 20
36.5000002116
 30
0.0
 11
336.9999992408
 21
26.5000002116
 31
0.0
  0
LINE
  5
AE
330
88
100
AcDbEntity
  8
AM_BOR
370
    18
100
AcDbLine
 10
331.9999992408
 20
36.5000002116
 30
0.0
 11
331.9999992408
 21
26.5000002116
 31
0.0
  0
LINE
  5
AF
330
88
100
AcDbEntity
  8
AM_BOR
370
    18
100
AcDbLine
 10
359.4999992408
 20
26.5000002116
 30
0.0
 11
359.4999996204
 21
16.5000002116
 31
0.0
  0
LINE
  5
B0
330
88
100
AcDbEntity
  8
AM_BOR
370
    18
100
AcDbLine
 10
336.9999992408
 20
54.5000002116
 30
0.0
 11
336.9999992408
 21
46.5000002116
 31
0.0
  0
LINE
  5
B1
330
88
100
AcDbEntity
  8
AM_BOR
370
    18
100
AcDbLine
 10
331.9999992408
 20
54.2500002116
 30
0.0
 11
331.9999992408
 21
46.5000002116
 31
0.0
  0
LINE
  5
B2
330
88
100
AcDbEntity
  8
AM_BOR
370
    18
100
AcDbLine
 10
364.4999992408
 20
26.5000002116
 30
0.0
 11
364.4999992408
 21
16.5000002116
 31
0.0
  0
LINE
  5
B3
330
88
100
AcDbEntity
  8
AM_BOR
370
    18
100
AcDbLine
 10
387.0
 20
54.2500002116
 30
0.0
 11
387.0
 21
46.5000002116
 31
0.0
  0
LINE
  5
B4
330
88
100
AcDbEntity
  8
AM_BOR
370
    18
100
AcDbLine
 10
397.0
 20
16.5000002116
 30
0.0
 11
397.0
 21
6.5000002116
 31
0.0
  0
LINE
  5
B5
330
88
100
AcDbEntity
  8
AM_BOR
370
    18
100
AcDbLine
 10
392.0
 20
54.2500002116
 30
0.0
 11
392.0
 21
46.5000002116
 31
0.0
  0
LINE
  5
B6
330
88
100
AcDbEntity
  8
AM_BOR
370
    18
100
AcDbLine
 10
282.0
 20
285.5000002116
 30
0.0
 11
402.0
 21
285.5000002116
 31
0.0
  0
LINE
  5
B7
330
88
100
AcDbEntity
  8
AM_BOR
370
    18
100
AcDbLine
 10
292.0
 20
280.5000002116
 30
0.0
 11
402.0
 21
280.5000002116
 31
0.0
  0
LINE
  5
B8
330
88
100
AcDbEntity
  8
AM_BOR
370
    18
100
AcDbLine
 10
292.0
 20
290.5000002116
 30
0.0
 11
292.0
 21
280.5000002116
 31
0.0
  0
LINE
  5
B9
330
88
100
AcDbEntity
  8
AM_BOR
370
    18
100
AcDbLine
 10
302.0
 20
290.5000002116
 30
0.0
 11
302.0
 21
280.5000002116
 31
0.0
  0
LINE
  5
BA
330
88
100
AcDbEntity
  8
AM_BOR
370
    18
100
AcDbLine
 10
322.0
 20
290.5000002116
 30
0.0
 11
322.0
 21
280.5000002116
 31
0.0
  0
LINE
  5
BB
330
88
100
AcDbEntity
  8
AM_BOR
370
    18
100
AcDbLine
 10
282.0
 20
290.5000002116
 30
0.0
 11
282.0
 21
285.5000002116
 31
0.0
  0
LINE
  5
BC
330
88
100
AcDbEntity
  8
AM_BOR
370
    18
100
AcDbLine
 10
372.0
 20
290.5000002116
 30
0.0
 11
372.0
 21
280.5000002116
 31
0.0
  0
LINE
  5
BD
330
88
100
AcDbEntity
  8
AM_BOR
370
    18
100
AcDbLine
 10
382.0
 20
290.5000002116
 30
0.0
 11
382.0
 21
280.5000002116
 31
0.0
  0
LINE
  5
BE
330
88
100
AcDbEntity
  8
AM_BOR
370
    18
100
AcDbLine
 10
392.0
 20
290.5000002116
 30
0.0
 11
392.0
 21
280.5000002116
 31
0.0
  0
LINE
  5
BF
330
88
100
AcDbEntity
  8
AM_BOR
370
    18
100
AcDbLine
 10
233.9999992408
 20
46.5000002116
 30
0.0
 11
233.9999992408
 21
36.5000002116
 31
0.0
  0
LINE
  5
C0
330
88
100
AcDbEntity
  8
AM_BOR
370
    18
100
AcDbLine
 10
316.9999992408
 20
54.5000002116
 30
0.0
 11
316.9999992408
 21
46.7500002116
 31
0.0
  0
LINE
  5
C1
330
88
100
AcDbEntity
  8
AM_BOR
370
    18
100
AcDbLine
 10
297.4186953658
 20
46.5000002116
 30
0.0
 11
297.4186953658
 21
36.5000002116
 31
0.0
  0
LINE
  5
C2
330
88
100
AcDbEntity
  8
AM_BOR
370
    18
100
AcDbLine
 10
301.9999992408
 20
46.5000002116
 30
0.0
 11
301.9999992408
 21
36.5000002116
 31
0.0
  0
LINE
  5
C3
330
88
100
AcDbEntity
  8
AM_BOR
370
    18
100
AcDbLine
 10
302.5618427501
 20
41.5000002116
 30
0.0
 11
309.7123074254
 21
41.5000002116
 31
0.0
  0
LINE
  5
C4
330
88
100
AcDbEntity
  8
AM_BOR
370
    18
100
AcDbLine
 10
309.7123074254
 20
41.5000002116
 30
0.0
 11
316.5598831718
 21
41.5000002116
 31
0.0
  0
LINE
  5
C5
330
88
100
AcDbEntity
  8
AM_BOR
370
    18
100
AcDbLine
 10
310.5535385636
 20
42.9063806725
 30
0.0
 11
310.5535385636
 21
40.0936197507
 31
0.0
  0
LINE
  5
C6
330
88
100
AcDbEntity
  8
AM_BOR
370
    18
100
AcDbLine
 10
316.3370026392
 20
44.3162236254
 30
0.0
 11
316.3370026392
 21
38.3750287114
 31
0.0
  0
LINE
  5
C7
330
88
100
AcDbEntity
  8
AM_BOR
370
    18
100
AcDbLine
 10
306.1370750877
 20
45.2100317098
 30
0.0
 11
306.1370750877
 21
37.7899687134
 31
0.0
  0
LINE
  5
C8
330
88
100
AcDbEntity
  8
AM_BOR
370
    18
100
AcDbLine
 10
310.5535385636
 20
42.9063806725
 30
0.0
 11
316.3370026392
 21
44.3162236254
 31
0.0
  0
LINE
  5
C9
330
88
100
AcDbEntity
  8
AM_BOR
370
    18
100
AcDbLine
 10
310.5535385636
 20
40.0936197507
 30
0.0
 11
316.3370026392
 21
38.3750287114
 31
0.0
  0
MTEXT
  5
CB
330
88
100
AcDbEntity
  8
AM_BOR
100
AcDbMText
 10
270.6251721268
 20
35.906304652
 30
0.0
 40
2.1166666667
 41
0.0
 71
     2
 72
     1
  1
製図
  7
SLDTEXTSTYLE0
 73
     1
 44
1.0
  0
MTEXT
  5
CC
330
88
100
AcDbEntity
  8
AM_BOR
100
AcDbMText
 10
231.4575338316
 20
40.906304652
 30
0.0
 40
2.1166666667
 41
0.0
 71
     2
 72
     1
  1
事
  7
SLDTEXTSTYLE0
 73
     1
 44
1.0
  0
MTEXT
  5
CD
330
88
100
AcDbEntity
  8
AM_BOR
100
AcDbMText
 10
234.625172886
 20
35.906304652
 30
0.0
 40
2.1166666667
 41
0.0
 71
     2
 72
     1
  1
承認
  7
SLDTEXTSTYLE0
 73
     1
 44
1.0
  0
MTEXT
  5
CE
330
88
100
AcDbEntity
  8
AM_BOR
100
AcDbMText
 10
231.4206229962
 20
45.0420091898
 30
0.0
 40
2.1166666667
 41
0.0
 71
     2
 72
     1
  1
記
  7
SLDTEXTSTYLE0
 73
     1
 44
1.0
  0
MTEXT
  5
CF
330
88
100
AcDbEntity
  8
AM_BOR
100
AcDbMText
 10
258.6251721268
 20
35.906304652
 30
0.0
 40
2.1166666667
 41
0.0
 71
     2
 72
     1
  1
設計
  7
SLDTEXTSTYLE0
 73
     1
 44
1.0
  0
MTEXT
  5
D0
330
88
100
AcDbEntity
  8
AM_BOR
100
AcDbMText
 10
246.6251721268
 20
35.906304652
 30
0.0
 40
2.1166666667
 41
0.0
 71
     2
 72
     1
  1
確認
  7
SLDTEXTSTYLE0
 73
     1
 44
1.0
  0
MTEXT
  5
D1
330
88
100
AcDbEntity
  8
AM_BOR
100
AcDbMText
 10
287.3125853042
 20
15.906304652
 30
0.0
 40
2.1166666667
 41
0.0
 71
     2
 72
     1
  1
尺
  7
SLDTEXTSTYLE0
 73
     1
 44
1.0
  0
MTEXT
  5
D2
330
88
100
AcDbEntity
  8
AM_BOR
100
AcDbMText
 10
316.3125853042
 20
15.906304652
 30
0.0
 40
2.1166666667
 41
0.0
 71
     2
 72
     1
  1
図
  7
SLDTEXTSTYLE0
 73
     1
 44
1.0
  0
MTEXT
  5
D3
330
88
100
AcDbEntity
  8
AM_BOR
100
AcDbMText
 10
287.3125860634
 20
10.906304652
 30
0.0
 40
2.1166666667
 41
0.0
 71
     2
 72
     1
  1
度
  7
SLDTEXTSTYLE0
 73
     1
 44
1.0
  0
MTEXT
  5
D4
330
88
100
AcDbEntity
  8
AM_BOR
100
AcDbMText
 10
316.3125860634
 20
10.906304652
 30
0.0
 40
2.1166666667
 41
0.0
 71
     2
 72
     1
  1
番
  7
SLDTEXTSTYLE0
 73
     1
 44
1.0
  0
MTEXT
  5
D5
330
88
100
AcDbEntity
  8
AM_BOR
100
AcDbMText
 10
281.625172886
 20
25.906304652
 30
0.0
 40
2.1166666667
 41
0.0
 71
     2
 72
     1
  1
公差
  7
SLDTEXTSTYLE0
 73
     1
 44
1.0
  0
MTEXT
  5
D6
330
88
100
AcDbEntity
  8
AM_BOR
100
AcDbMText
 10
281.4377597086
 20
19.9297285492
 30
0.0
 40
1.5875
 41
0.0
 71
     2
 72
     1
  1
概略重量
  7
SLDTEXTSTYLE0
 73
     1
 44
1.0
  0
MTEXT
  5
D7
330
88
100
AcDbEntity
  8
AM_BOR
100
AcDbMText
 10
281.625172886
 20
30.906304652
 30
0.0
 40
2.1166666667
 41
0.0
 71
     2
 72
     1
  1
個数
  7
SLDTEXTSTYLE0
 73
     1
 44
1.0
  0
MTEXT
  5
D8
330
88
100
AcDbEntity
  8
AM_BOR
100
AcDbMText
 10
319.297101721
 20
40.7344765379
 30
0.0
 40
2.1166666667
 41
0.0
 71
     2
 72
     1
  1
種
  7
SLDTEXTSTYLE0
 73
     1
 44
1.0
  0
MTEXT
  5
D9
330
88
100
AcDbEntity
  8
AM_BOR
100
AcDbMText
 10
310.2503465312
 20
25.4636965327
 30
0.0
 40
2.1166666667
 41
0.0
 71
     2
 72
     1
  1
初期取数
  7
SLDTEXTSTYLE0
 73
     1
 44
1.0
  0
MTEXT
  5
DA
330
88
100
AcDbEntity
  8
AM_BOR
100
AcDbMText
 10
319.3125853042
 20
20.906304652
 30
0.0
 40
2.1166666667
 41
0.0
 71
     2
 72
     1
  1
質
  7
SLDTEXTSTYLE0
 73
     1
 44
1.0
  0
MTEXT
  5
DB
330
88
100
AcDbEntity
  8
AM_BOR
100
AcDbMText
 10
319.3280696467
 20
25.5626484237
 30
0.0
 40
2.1166666667
 41
0.0
 71
     2
 72
     1
  1
材
  7
SLDTEXTSTYLE0
 73
     1
 44
1.0
  0
MTEXT
  5
DC
330
88
100
AcDbEntity
  8
AM_BOR
100
AcDbMText
 10
319.4689290759
 20
35.906304652
 30
0.0
 40
2.1166666667
 41
0.0
 71
     2
 72
     1
  1
部
  7
SLDTEXTSTYLE0
 73
     1
 44
1.0
  0
MTEXT
  5
DD
330
88
100
AcDbEntity
  8
AM_BOR
100
AcDbMText
 10
319.3125860634
 20
30.906304652
 30
0.0
 40
2.1166666667
 41
0.0
 71
     2
 72
     1
  1
番
  7
SLDTEXTSTYLE0
 73
     1
 44
1.0
  0
MTEXT
  5
DE
330
88
100
AcDbEntity
  8
AM_BOR
100
AcDbMText
 10
319.3125860634
 20
50.156304652
 30
0.0
 40
2.1166666667
 41
0.0
 71
     2
 72
     1
  1
番
  7
SLDTEXTSTYLE0
 73
     1
 44
1.0
  0
MTEXT
  5
DF
330
88
100
AcDbEntity
  8
AM_BOR
100
AcDbMText
 10
319.3125853042
 20
45.906304652
 30
0.0
 40
2.1166666667
 41
0.0
 71
     2
 72
     1
  1
機
  7
SLDTEXTSTYLE0
 73
     1
 44
1.0
  0
MTEXT
  5
E0
330
88
100
AcDbEntity
  8
AM_BOR
100
AcDbMText
 10
319.3830157781
 20
53.7267343667
 30
0.0
 40
2.1166666667
 41
0.0
 71
     2
 72
     1
  1
部
  7
SLDTEXTSTYLE0
 73
     1
 44
1.0
  0
MTEXT
  5
E1
330
88
100
AcDbEntity
  8
AM_BOR
100
AcDbMText
 10
389.3125868226
 20
54.156304652
 30
0.0
 40
2.1166666667
 41
0.0
 71
     2
 72
     1
  1
個
  7
SLDTEXTSTYLE0
 73
     1
 44
1.0
  0
MTEXT
  5
E2
330
88
100
AcDbEntity
  8
AM_BOR
100
AcDbMText
 10
389.3278895123
 20
50.4155932907
 30
0.0
 40
2.1166666667
 41
0.0
 71
     2
 72
     1
  1
数
  7
SLDTEXTSTYLE0
 73
     1
 44
1.0
  0
MTEXT
  5
E3
330
88
100
AcDbEntity
  8
AM_BOR
100
AcDbMText
 10
334.3125853042
 20
35.906304652
 30
0.0
 40
2.1166666667
 41
0.0
 71
     2
 72
     1
  1
品
  7
SLDTEXTSTYLE0
 73
     1
 44
1.0
  0
MTEXT
  5
E4
330
88
100
AcDbEntity
  8
AM_BOR
100
AcDbMText
 10
334.3125860634
 20
30.906304652
 30
0.0
 40
2.1166666667
 41
0.0
 71
     2
 72
     1
  1
名
  7
SLDTEXTSTYLE0
 73
     1
 44
1.0
  0
MTEXT
  5
E5
330
88
100
AcDbEntity
  8
AM_BOR
100
AcDbMText
 10
334.297101721
 20
49.9844765379
 30
0.0
 40
2.1166666667
 41
0.0
 71
     2
 72
     1
  1
種
  7
SLDTEXTSTYLE0
 73
     1
 44
1.0
  0
MTEXT
  5
E6
330
88
100
AcDbEntity
  8
AM_BOR
100
AcDbMText
 10
334.3125860634
 20
54.156304652
 30
0.0
 40
2.1166666667
 41
0.0
 71
     2
 72
     1
  1
機
  7
SLDTEXTSTYLE0
 73
     1
 44
1.0
  0
MTEXT
  5
E7
330
88
100
AcDbEntity
  8
AM_BOR
100
AcDbMText
 10
362.3125860634
 20
20.906304652
 30
0.0
 40
2.1166666667
 41
0.0
 71
     2
 72
     1
  1
理
  7
SLDTEXTSTYLE0
 73
     1
 44
1.0
  0
MTEXT
  5
E8
330
88
100
AcDbEntity
  8
AM_BOR
100
AcDbMText
 10
362.3125853042
 20
25.906304652
 30
0.0
 40
2.1166666667
 41
0.0
 71
     2
 72
     1
  1
処
  7
SLDTEXTSTYLE0
 73
     1
 44
1.0
  0
MTEXT
  5
E9
330
88
100
AcDbEntity
  8
AM_BOR
100
AcDbMText
 10
287.1251736452
 20
289.906304652
 30
0.0
 40
2.1166666667
 41
0.0
 71
     2
 72
     1
  1
改訂
  7
SLDTEXTSTYLE0
 73
     1
 44
1.0
  0
MTEXT
  5
EA
330
88
100
AcDbEntity
  8
AM_BOR
100
AcDbMText
 10
296.8125868226
 20
289.906304652
 30
0.0
 40
2.1166666667
 41
0.0
 71
     2
 72
     1
  1
号
  7
SLDTEXTSTYLE0
 73
     1
 44
1.0
  0
MTEXT
  5
EB
330
88
100
AcDbEntity
  8
AM_BOR
100
AcDbMText
 10
311.5151754588
 20
289.906304652
 30
0.0
 40
2.1166666667
 41
0.0
 71
     2
 72
     1
  1
日　付
  7
SLDTEXTSTYLE0
 73
     1
 44
1.0
  0
MTEXT
  5
EC
330
88
100
AcDbEntity
  8
AM_BOR
100
AcDbMText
 10
386.6251736452
 20
289.906304652
 30
0.0
 40
2.1166666667
 41
0.0
 71
     2
 72
     1
  1
確認
  7
SLDTEXTSTYLE0
 73
     1
 44
1.0
  0
MTEXT
  5
ED
330
88
100
AcDbEntity
  8
AM_BOR
100
AcDbMText
 10
346.2951790859
 20
289.906304652
 30
0.0
 40
2.1166666667
 41
0.0
 71
     2
 72
     1
  1
記　　　事
  7
SLDTEXTSTYLE0
 73
     1
 44
1.0
  0
MTEXT
  5
EE
330
88
100
AcDbEntity
  8
AM_BOR
100
AcDbMText
 10
376.6251736452
 20
289.906304652
 30
0.0
 40
2.1166666667
 41
0.0
 71
     2
 72
     1
  1
担当
  7
SLDTEXTSTYLE0
 73
     1
 44
1.0
  0
MTEXT
  5
EF
330
88
100
AcDbEntity
  8
AM_BOR
100
AcDbMText
 10
396.6251736452
 20
289.906304652
 30
0.0
 40
2.1166666667
 41
0.0
 71
     2
 72
     1
  1
承認
  7
SLDTEXTSTYLE0
 73
     1
 44
1.0
  0
MTEXT
  5
F0
330
88
100
AcDbEntity
  8
AM_BOR
100
AcDbMText
 10
299.4772352454
 20
40.3984219787
 30
0.0
 40
2.1166666667
 41
0.0
 71
     2
 72
     1
  1
置
  7
SLDTEXTSTYLE0
 73
     1
 44
1.0
  0
MTEXT
  5
F1
330
88
100
AcDbEntity
  8
AM_BOR
100
AcDbMText
 10
299.4303312437
 20
45.2583121683
 30
0.0
 40
2.1166666667
 41
0.0
 71
     2
 72
     1
  1
配
  7
SLDTEXTSTYLE0
 73
     1
 44
1.0
  0
ENDBLK
  5
8A
330
88
100
AcDbEntity
  8
0
100
AcDbBlockEnd
  0
BLOCK
  5
F3
330
F2
100
AcDbEntity
  8
0
100
AcDbBlockBegin
  2
tjmlogo_0
 70
     0
 10
0.0
 20
0.0
 30
0.0
  3
tjmlogo_0
  1

  0
LINE
  5
F5
330
F2
100
AcDbEntity
  8
レイヤー_1
 62
   250
100
AcDbLine
 10
42.8622818908
 20
-127.3892584345
 30
0.0
 11
41.6186024203
 21
-128.9650451098
 31
0.0
  0
LINE
  5
F6
330
F2
100
AcDbEntity
  8
レイヤー_1
 62
   250
100
AcDbLine
 10
37.9323502502
 20
-126.0298237556
 30
0.0
 11
39.1326215176
 21
-124.5987310907
 31
0.0
  0
LINE
  5
F7
330
F2
100
AcDbEntity
  8
レイヤー_1
 62
   250
100
AcDbLine
 10
38.4380902676
 20
-135.571360214
 30
0.0
 11
37.9041004672
 21
-133.5759609084
 31
0.0
  0
LINE
  5
F8
330
F2
100
AcDbEntity
  8
レイヤー_1
 62
   250
100
AcDbLine
 10
32.034346778
 20
-128.2126362556
 30
0.0
 11
32.034346778
 21
-134.3862473668
 31
0.0
  0
LINE
  5
F9
330
F2
100
AcDbEntity
  8
レイヤー_1
 62
   250
100
AcDbLine
 10
32.1060047641
 20
-135.9902838251
 30
0.0
 11
30.0830446946
 21
-135.9902838251
 31
0.0
  0
LINE
  5
FA
330
F2
100
AcDbEntity
  8
レイヤー_1
 62
   250
100
AcDbLine
 10
30.1691720818
 20
-134.4289665508
 30
0.0
 11
30.1691720818
 21
-129.3405605178
 31
0.0
  0
LINE
  5
FB
330
F2
100
AcDbEntity
  8
レイヤー_1
 62
   250
100
AcDbLine
 10
34.3184450853
 20
-123.5720926359
 30
0.0
 11
35.981737186
 21
-124.7289557001
 31
0.0
  0
LINE
  5
FC
330
F2
100
AcDbEntity
  8
レイヤー_1
 62
   250
100
AcDbLine
 10
22.2178916999
 20
-123.5720926359
 30
0.0
 11
23.2286827155
 21
-123.1965772279
 31
0.0
  0
LINE
  5
FD
330
F2
100
AcDbEntity
  8
レイヤー_1
 62
   250
100
AcDbLine
 10
24.1554134012
 20
-125.1051601272
 30
0.0
 11
23.1143055453
 21
-125.5385531393
 31
0.0
  0
LINE
  5
FE
330
F2
100
AcDbEntity
  8
レイヤー_1
 62
   250
100
AcDbLine
 10
22.6216568908
 20
-125.7121859518
 30
0.0
 11
21.552988271
 21
-126.1166401619
 31
0.0
  0
LINE
  5
FF
330
F2
100
AcDbEntity
  8
レイヤー_1
 62
   250
100
AcDbLine
 10
20.6269466044
 20
-124.0785216723
 30
0.0
 11
21.6832128804
 21
-123.7023172452
 31
0.0
  0
LINE
  5
100
330
F2
100
AcDbEntity
  8
レイヤー_1
 62
   250
100
AcDbLine
 10
18.7624609273
 20
-126.5066249709
 30
0.0
 11
18.7776193474
 21
-125.8561909431
 31
0.0
  0
LINE
  5
101
330
F2
100
AcDbEntity
  8
レイヤー_1
 62
   250
100
AcDbLine
 10
18.7776193474
 20
-125.8561909431
 30
0.0
 11
18.7776193474
 21
-125.3938591289
 31
0.0
  0
LINE
  5
102
330
F2
100
AcDbEntity
  8
レイヤー_1
 62
   250
100
AcDbLine
 10
18.7045833231
 20
-123.7753532695
 30
0.0
 11
20.5690690002
 21
-123.7753532695
 31
0.0
  0
LINE
  5
103
330
F2
100
AcDbEntity
  8
レイヤー_1
 62
   250
100
AcDbLine
 10
20.4974110141
 20
-126.5066249709
 30
0.0
 11
21.4220746426
 21
-126.5066249709
 31
0.0
  0
LINE
  5
104
330
F2
100
AcDbEntity
  8
レイヤー_1
 62
   250
100
AcDbLine
 10
23.3024077589
 20
-126.4060281827
 30
0.0
 11
23.3024077589
 21
-128.1699170716
 31
0.0
  0
LINE
  5
105
330
F2
100
AcDbEntity
  8
レイヤー_1
 62
   250
100
AcDbLine
 10
21.4517024637
 20
-128.0968810473
 30
0.0
 11
20.4829416131
 21
-128.0968810473
 31
0.0
  0
LINE
  5
106
330
F2
100
AcDbEntity
  8
レイヤー_1
 62
   250
100
AcDbLine
 10
18.7479915262
 20
-128.0968810473
 30
0.0
 11
15.0038617519
 21
-128.0968810473
 31
0.0
  0
LINE
  5
107
330
F2
100
AcDbEntity
  8
レイヤー_1
 62
   250
100
AcDbLine
 10
15.0038617519
 20
-128.0968810473
 30
0.0
 11
15.0038617519
 21
-130.2507547452
 31
0.0
  0
LINE
  5
108
330
F2
100
AcDbEntity
  8
レイヤー_1
 62
   250
100
AcDbLine
 10
15.0617393561
 20
-131.4654954136
 30
0.0
 11
13.182784278
 21
-131.4654954136
 31
0.0
  0
LINE
  5
109
330
F2
100
AcDbEntity
  8
レイヤー_1
 62
   250
100
AcDbLine
 10
13.2406618821
 20
-130.2225049622
 30
0.0
 11
13.2406618821
 21
-128.0968810473
 31
0.0
  0
LINE
  5
10A
330
F2
100
AcDbEntity
  8
レイヤー_1
 62
   250
100
AcDbLine
 10
13.2406618821
 20
-128.0968810473
 30
0.0
 11
12.3580284186
 21
-128.0968810473
 31
0.0
  0
LINE
  5
10B
330
F2
100
AcDbEntity
  8
レイヤー_1
 62
   250
100
AcDbLine
 10
10.5073231235
 20
-128.1699170716
 30
0.0
 11
10.5073231235
 21
-126.4060281827
 31
0.0
  0
LINE
  5
10C
330
F2
100
AcDbEntity
  8
レイヤー_1
 62
   250
100
AcDbLine
 10
12.3862782016
 20
-126.5066249709
 30
0.0
 11
13.2406618821
 21
-126.5066249709
 31
0.0
  0
LINE
  5
10D
330
F2
100
AcDbEntity
  8
レイヤー_1
 62
   250
100
AcDbLine
 10
13.2406618821
 20
-126.5066249709
 30
0.0
 11
13.2406618821
 21
-125.061062905
 31
0.0
  0
LINE
  5
10E
330
F2
100
AcDbEntity
  8
レイヤー_1
 62
   250
100
AcDbLine
 10
13.1676258578
 20
-123.7753532695
 30
0.0
 11
15.0617393561
 21
-123.7753532695
 31
0.0
  0
LINE
  5
10F
330
F2
100
AcDbEntity
  8
レイヤー_1
 62
   250
100
AcDbLine
 10
15.0038617519
 20
-125.0031853008
 30
0.0
 11
15.0038617519
 21
-126.5066249709
 31
0.0
  0
LINE
  5
110
330
F2
100
AcDbEntity
  8
レイヤー_1
 62
   250
100
AcDbLine
 10
15.0038617519
 20
-126.5066249709
 30
0.0
 11
18.7624609273
 21
-126.5066249709
 31
0.0
  0
LINE
  5
111
330
F2
100
AcDbEntity
  8
レイヤー_1
 62
   250
100
AcDbLine
 10
7.9793120558
 20
-124.4685064813
 30
0.0
 11
9.0479806756
 21
-124.0488938511
 31
0.0
  0
LINE
  5
112
330
F2
100
AcDbEntity
  8
レイヤー_1
 62
   250
100
AcDbLine
 10
10.0601497294
 20
-125.9864155525
 30
0.0
 11
8.9756336703
 21
-126.4487473668
 31
0.0
  0
LINE
  5
113
330
F2
100
AcDbEntity
  8
レイヤー_1
 62
   250
100
AcDbLine
 10
8.4705826721
 20
-126.6368495803
 30
0.0
 11
7.3564387919
 21
-127.0998704136
 31
0.0
  0
LINE
  5
114
330
F2
100
AcDbEntity
  8
レイヤー_1
 62
   250
100
AcDbLine
 10
6.4021473422
 20
-125.1189405091
 30
0.0
 11
6.4021473422
 21
-125.8858187643
 31
0.0
  0
LINE
  5
115
330
F2
100
AcDbEntity
  8
レイヤー_1
 62
   250
100
AcDbLine
 10
4.5666004672
 20
-125.81278274
 30
0.0
 11
0.1858170471
 21
-125.81278274
 31
0.0
  0
LINE
  5
116
330
F2
100
AcDbEntity
  8
レイヤー_1
 62
   250
100
AcDbLine
 10
-1.6490408088
 20
-125.8858187643
 30
0.0
 11
-1.6490408088
 21
-124.1219298754
 31
0.0
  0
LINE
  5
117
330
F2
100
AcDbEntity
  8
レイヤー_1
 62
   250
100
AcDbLine
 10
0.2154448683
 20
-124.2225266636
 30
0.0
 11
4.536972646
 21
-124.2225266636
 31
0.0
  0
LINE
  5
118
330
F2
100
AcDbEntity
  8
レイヤー_1
 62
   250
100
AcDbLine
 10
6.4021473422
 20
-124.1219298754
 30
0.0
 11
6.4021473422
 21
-125.0176547018
 31
0.0
  0
LINE
  5
119
330
F2
100
AcDbEntity
  8
レイヤー_1
 62
   250
100
AcDbLine
 10
6.4021473422
 20
-125.0176547018
 30
0.0
 11
7.4584136183
 21
-124.6138895109
 31
0.0
  0
LINE
  5
11A
330
F2
100
AcDbEntity
  8
レイヤー_1
 62
   250
100
AcDbLine
 10
2.2390939568
 20
-129.4273769241
 30
0.0
 11
-1.2735254008
 21
-129.4273769241
 31
0.0
  0
LINE
  5
11B
330
F2
100
AcDbEntity
  8
レイヤー_1
 62
   250
100
AcDbLine
 10
-3.110450314
 20
-129.4997239293
 30
0.0
 11
-3.110450314
 21
-127.7785542244
 31
0.0
  0
LINE
  5
11C
330
F2
100
AcDbEntity
  8
レイヤー_1
 62
   250
100
AcDbLine
 10
-1.2452756179
 20
-127.8805290508
 30
0.0
 11
7.2124338006
 21
-127.8805290508
 31
0.0
  0
LINE
  5
11D
330
F2
100
AcDbEntity
  8
レイヤー_1
 62
   250
100
AcDbLine
 10
9.0776084967
 20
-127.7785542244
 30
0.0
 11
9.0776084967
 21
-129.4997239293
 31
0.0
  0
LINE
  5
11E
330
F2
100
AcDbEntity
  8
レイヤー_1
 62
   250
100
AcDbLine
 10
7.2406835835
 20
-129.4273769241
 30
0.0
 11
4.1476768561
 21
-129.4273769241
 31
0.0
  0
LINE
  5
11F
330
F2
100
AcDbEntity
  8
レイヤー_1
 62
   250
100
AcDbLine
 10
-12.4631955397
 20
-133.5332417244
 30
0.0
 11
-14.5454112515
 21
-128.5743712817
 31
0.0
  0
LINE
  5
120
330
F2
100
AcDbEntity
  8
レイヤー_1
 62
   250
100
AcDbLine
 10
-15.1669064772
 20
-128.6315598668
 30
0.0
 11
-15.1669064772
 21
-133.3733892938
 31
0.0
  0
LINE
  5
121
330
F2
100
AcDbEntity
  8
レイヤー_1
 62
   250
100
AcDbLine
 10
-15.0511512689
 20
-135.4845438077
 30
0.0
 11
-17.0754893765
 21
-135.4845438077
 31
0.0
  0
LINE
  5
122
330
F2
100
AcDbEntity
  8
レイヤー_1
 62
   250
100
AcDbLine
 10
-16.9597341682
 20
-133.3733892938
 30
0.0
 11
-16.9597341682
 21
-126.1166401619
 31
0.0
  0
LINE
  5
123
330
F2
100
AcDbEntity
  8
レイヤー_1
 62
   250
100
AcDbLine
 10
-17.0754893765
 20
-123.977235865
 30
0.0
 11
-14.4296560432
 21
-123.977235865
 31
0.0
  0
LINE
  5
124
330
F2
100
AcDbEntity
  8
レイヤー_1
 62
   250
100
AcDbLine
 10
-13.8949772238
 20
-125.6977165508
 30
0.0
 11
-10.9597558696
 21
-132.8683382956
 31
0.0
  0
LINE
  5
125
330
F2
100
AcDbEntity
  8
レイヤー_1
 62
   250
100
AcDbLine
 10
-10.9597558696
 20
-132.8683382956
 30
0.0
 11
-8.0403819547
 21
-125.6977165508
 31
0.0
  0
LINE
  5
126
330
F2
100
AcDbEntity
  8
レイヤー_1
 62
   250
100
AcDbLine
 10
-7.5194835172
 20
-123.977235865
 30
0.0
 11
-4.8591807828
 21
-123.977235865
 31
0.0
  0
LINE
  5
127
330
F2
100
AcDbEntity
  8
レイヤー_1
 62
   250
100
AcDbLine
 10
-4.9756250102
 20
-126.1166401619
 30
0.0
 11
-4.9756250102
 21
-133.3733892938
 31
0.0
  0
LINE
  5
128
330
F2
100
AcDbEntity
  8
レイヤー_1
 62
   250
100
AcDbLine
 10
-4.8591807828
 20
-135.4845438077
 30
0.0
 11
-6.8842079095
 21
-135.4845438077
 31
0.0
  0
LINE
  5
129
330
F2
100
AcDbEntity
  8
レイヤー_1
 62
   250
100
AcDbLine
 10
-6.7684527012
 20
-133.3733892938
 30
0.0
 11
-6.7684527012
 21
-128.5743712817
 31
0.0
  0
LINE
  5
12A
330
F2
100
AcDbEntity
  8
レイヤー_1
 62
   250
100
AcDbLine
 10
-7.3176009217
 20
-128.4737744935
 30
0.0
 11
-9.4859440206
 21
-133.5614915074
 31
0.0
  0
LINE
  5
12B
330
F2
100
AcDbEntity
  8
レイヤー_1
 62
   250
100
AcDbLine
 10
-10.1212196283
 20
-135.4845438077
 30
0.0
 11
-11.8279199321
 21
-135.4845438077
 31
0.0
  0
LINE
  5
12C
330
F2
100
AcDbEntity
  8
レイヤー_1
 62
   250
100
AcDbLine
 10
-19.2286740554
 20
-125.8417215421
 30
0.0
 11
-19.2286740554
 21
-132.318501056
 31
0.0
  0
LINE
  5
12D
330
F2
100
AcDbEntity
  8
レイヤー_1
 62
   250
100
AcDbLine
 10
-26.5722395935
 20
-133.2438537036
 30
0.0
 11
-24.6636566942
 21
-132.5500114727
 31
0.0
  0
LINE
  5
12E
330
F2
100
AcDbEntity
  8
レイヤー_1
 62
   250
100
AcDbLine
 10
-21.1951345588
 20
-132.2895622539
 30
0.0
 11
-21.1951345588
 21
-125.8417215421
 31
0.0
  0
LINE
  5
12F
330
F2
100
AcDbEntity
  8
レイヤー_1
 62
   250
100
AcDbLine
 10
-21.3108897672
 20
-123.977235865
 30
0.0
 11
-19.112918847
 21
-123.977235865
 31
0.0
  0
LINE
  5
130
330
F2
100
AcDbEntity
  8
レイヤー_1
 62
   250
100
AcDbLine
 10
-29.0878483175
 20
-135.4845438077
 30
0.0
 11
-31.2706608175
 21
-135.4845438077
 31
0.0
  0
LINE
  5
131
330
F2
100
AcDbEntity
  8
レイヤー_1
 62
   250
100
AcDbLine
 10
-31.1549056092
 20
-133.6048997105
 30
0.0
 11
-31.1549056092
 21
-125.7121859518
 31
0.0
  0
LINE
  5
132
330
F2
100
AcDbEntity
  8
レイヤー_1
 62
   250
100
AcDbLine
 10
-31.1549056092
 20
-125.7121859518
 30
0.0
 11
-33.1068967116
 21
-125.7121859518
 31
0.0
  0
LINE
  5
133
330
F2
100
AcDbEntity
  8
レイヤー_1
 62
   250
100
AcDbLine
 10
-35.0878266161
 20
-125.81278274
 30
0.0
 11
-35.0878266161
 21
-123.8759500577
 31
0.0
  0
LINE
  5
134
330
F2
100
AcDbEntity
  8
レイヤー_1
 62
   250
100
AcDbLine
 10
-33.1213661126
 20
-123.977235865
 30
0.0
 11
-27.3969954529
 21
-123.977235865
 31
0.0
  0
LINE
  5
135
330
F2
100
AcDbEntity
  8
レイヤー_1
 62
   250
100
AcDbLine
 10
-25.2720605571
 20
-123.8759500577
 30
0.0
 11
-25.2720605571
 21
-125.81278274
 31
0.0
  0
LINE
  5
136
330
F2
100
AcDbEntity
  8
レイヤー_1
 62
   250
100
AcDbLine
 10
-27.3969954529
 20
-125.7121859518
 30
0.0
 11
-29.2036035258
 21
-125.7121859518
 31
0.0
  0
LINE
  5
137
330
F2
100
AcDbEntity
  8
レイヤー_1
 62
   250
100
AcDbLine
 10
-29.2036035258
 20
-125.7121859518
 30
0.0
 11
-29.2036035258
 21
-133.6048997105
 31
0.0
  0
LINE
  5
138
330
F2
100
AcDbEntity
  8
レイヤー_1
 62
   250
100
AcDbLine
 10
-39.2935991856
 20
-134.3573085647
 30
0.0
 11
-37.5600271369
 21
-134.3573085647
 31
0.0
  0
LINE
  5
139
330
F2
100
AcDbEntity
  8
レイヤー_1
 62
   250
100
AcDbLine
 10
-35.9112044373
 20
-134.2704921584
 30
0.0
 11
-35.9112044373
 21
-136.0192226272
 31
0.0
  0
LINE
  5
13A
330
F2
100
AcDbEntity
  8
レイヤー_1
 62
   250
100
AcDbLine
 10
-37.5600271369
 20
-135.9179368199
 30
0.0
 11
-42.5037391595
 21
-135.9179368199
 31
0.0
  0
LINE
  5
13B
330
F2
100
AcDbEntity
  8
レイヤー_1
 62
   250
100
AcDbLine
 10
-44.137403439
 20
-136.0192226272
 30
0.0
 11
-44.137403439
 21
-134.2704921584
 31
0.0
  0
LINE
  5
13C
330
F2
100
AcDbEntity
  8
レイヤー_1
 62
   250
100
AcDbLine
 10
-42.4741113383
 20
-134.3573085647
 30
0.0
 11
-40.8990136821
 21
-134.3573085647
 31
0.0
  0
LINE
  5
13D
330
F2
100
AcDbEntity
  8
レイヤー_1
 62
   250
100
AcDbLine
 10
-40.8990136821
 20
-134.3573085647
 30
0.0
 11
-40.8990136821
 21
-128.7045958911
 31
0.0
  0
LINE
  5
13E
330
F2
100
AcDbEntity
  8
レイヤー_1
 62
   250
100
AcDbLine
 10
-40.8990136821
 20
-128.7045958911
 30
0.0
 11
-41.982840722
 21
-128.7045958911
 31
0.0
  0
LINE
  5
13F
330
F2
100
AcDbEntity
  8
レイヤー_1
 62
   250
100
AcDbLine
 10
-43.400153005
 20
-128.7769428963
 30
0.0
 11
-43.400153005
 21
-127.1432786168
 31
0.0
  0
LINE
  5
140
330
F2
100
AcDbEntity
  8
レイヤー_1
 62
   250
100
AcDbLine
 10
-41.982840722
 20
-127.215625622
 30
0.0
 11
-40.8990136821
 21
-127.215625622
 31
0.0
  0
LINE
  5
141
330
F2
100
AcDbEntity
  8
レイヤー_1
 62
   250
100
AcDbLine
 10
-40.8990136821
 20
-127.215625622
 30
0.0
 11
-40.8990136821
 21
-124.6710780959
 31
0.0
  0
LINE
  5
142
330
F2
100
AcDbEntity
  8
レイヤー_1
 62
   250
100
AcDbLine
 10
-41.0002994894
 20
-123.1683274449
 30
0.0
 11
-39.1930023974
 21
-123.1683274449
 31
0.0
  0
LINE
  5
143
330
F2
100
AcDbEntity
  8
レイヤー_1
 62
   250
100
AcDbLine
 10
-39.2935991856
 20
-124.6710780959
 30
0.0
 11
-39.2935991856
 21
-127.215625622
 31
0.0
  0
LINE
  5
144
330
F2
100
AcDbEntity
  8
レイヤー_1
 62
   250
100
AcDbLine
 10
-39.2935991856
 20
-127.215625622
 30
0.0
 11
-37.7619097324
 21
-127.215625622
 31
0.0
  0
LINE
  5
145
330
F2
100
AcDbEntity
  8
レイヤー_1
 62
   250
100
AcDbLine
 10
-36.3445974494
 20
-127.1432786168
 30
0.0
 11
-36.3445974494
 21
-128.7769428963
 31
0.0
  0
LINE
  5
146
330
F2
100
AcDbEntity
  8
レイヤー_1
 62
   250
100
AcDbLine
 10
-37.7619097324
 20
-128.7045958911
 30
0.0
 11
-39.2935991856
 21
-128.7045958911
 31
0.0
  0
LINE
  5
147
330
F2
100
AcDbEntity
  8
レイヤー_1
 62
   250
100
AcDbLine
 10
-39.2935991856
 20
-128.7045958911
 30
0.0
 11
-39.2935991856
 21
-134.3573085647
 31
0.0
  0
LINE
  5
148
330
F2
100
AcDbEntity
  8
レイヤー_1
 62
   250
100
AcDbLine
 10
-45.3514550883
 20
-136.5104932435
 30
0.0
 11
-47.1008745762
 21
-136.5104932435
 31
0.0
  0
LINE
  5
149
330
F2
100
AcDbEntity
  8
レイヤー_1
 62
   250
100
AcDbLine
 10
-47.014747189
 20
-135.0070535734
 30
0.0
 11
-47.014747189
 21
-131.3786790074
 31
0.0
  0
LINE
  5
14A
330
F2
100
AcDbEntity
  8
レイヤー_1
 62
   250
100
AcDbLine
 10
-45.2935774842
 20
-126.9262376011
 30
0.0
 11
-47.6500227967
 21
-126.9262376011
 31
0.0
  0
LINE
  5
14B
330
F2
100
AcDbEntity
  8
レイヤー_1
 62
   250
100
AcDbLine
 10
-48.864074446
 20
-126.9841152053
 30
0.0
 11
-48.864074446
 21
-125.3787007088
 31
0.0
  0
LINE
  5
14C
330
F2
100
AcDbEntity
  8
レイヤー_1
 62
   250
100
AcDbLine
 10
-47.7216807828
 20
-125.4365783129
 30
0.0
 11
-46.9988997498
 21
-125.4365783129
 31
0.0
  0
LINE
  5
14D
330
F2
100
AcDbEntity
  8
レイヤー_1
 62
   250
100
AcDbLine
 10
-46.9988997498
 20
-125.4365783129
 30
0.0
 11
-46.9988997498
 21
-124.2225266636
 31
0.0
  0
LINE
  5
14E
330
F2
100
AcDbEntity
  8
レイヤー_1
 62
   250
100
AcDbLine
 10
-47.0864051751
 20
-123.1242302227
 30
0.0
 11
-45.3369856873
 21
-123.1242302227
 31
0.0
  0
LINE
  5
14F
330
F2
100
AcDbEntity
  8
レイヤー_1
 62
   250
100
AcDbLine
 10
-45.4231130744
 20
-124.2521544848
 30
0.0
 11
-45.4231130744
 21
-125.4365783129
 31
0.0
  0
LINE
  5
150
330
F2
100
AcDbEntity
  8
レイヤー_1
 62
   250
100
AcDbLine
 10
-45.4231130744
 20
-125.4365783129
 30
0.0
 11
-44.8305566508
 21
-125.4365783129
 31
0.0
  0
LINE
  5
151
330
F2
100
AcDbEntity
  8
レイヤー_1
 62
   250
100
AcDbLine
 10
-43.9920204095
 20
-125.3938591289
 30
0.0
 11
-43.2988671977
 21
-126.145578964
 31
0.0
  0
LINE
  5
152
330
F2
100
AcDbEntity
  8
レイヤー_1
 62
   250
100
AcDbLine
 10
-45.4231130744
 20
-130.8440001879
 30
0.0
 11
-45.4231130744
 21
-135.0366813945
 31
0.0
  0
LINE
  5
153
330
F2
100
AcDbEntity
  8
レイヤー_1
 62
   250
100
AcDbLine
 10
-59.388841156
 20
-127.4471360386
 30
0.0
 11
-54.5884451057
 21
-127.4471360386
 31
0.0
  0
LINE
  5
154
330
F2
100
AcDbEntity
  8
レイヤー_1
 62
   250
100
AcDbLine
 10
-63.1467513123
 20
-131.7114752313
 30
0.0
 11
-63.1467513123
 21
-130.0350917678
 31
0.0
  0
LINE
  5
155
330
F2
100
AcDbEntity
  8
レイヤー_1
 62
   250
100
AcDbLine
 10
-61.4414290467
 20
-130.121219155
 30
0.0
 11
-52.435949446
 21
-130.121219155
 31
0.0
  0
LINE
  5
156
330
F2
100
AcDbEntity
  8
レイヤー_1
 62
   250
100
AcDbLine
 10
-50.7430295241
 20
-130.0350917678
 30
0.0
 11
-50.7430295241
 21
-131.7114752313
 31
0.0
  0
LINE
  5
157
330
F2
100
AcDbEntity
  8
レイヤー_1
 62
   250
100
AcDbLine
 10
-52.435949446
 20
-131.6246588251
 30
0.0
 11
-57.4079112515
 21
-131.6246588251
 31
0.0
  0
LINE
  5
158
330
F2
100
AcDbEntity
  8
レイヤー_1
 62
   250
100
AcDbLine
 10
-55.8465939772
 20
-132.4631950664
 30
0.0
 11
-54.4148122932
 21
-131.8272304397
 31
0.0
  0
LINE
  5
159
330
F2
100
AcDbEntity
  8
レイヤー_1
 62
   250
100
AcDbLine
 10
-51.0758257481
 20
-135.6871154223
 30
0.0
 11
-52.464199229
 21
-136.5973096497
 31
0.0
  0
LINE
  5
15A
330
F2
100
AcDbEntity
  8
レイヤー_1
 62
   250
100
AcDbLine
 10
-62.6692610779
 20
-136.294141247
 30
0.0
 11
-62.9007714946
 21
-134.5302523581
 31
0.0
  0
LINE
  5
15B
330
F2
100
AcDbEntity
  8
レイヤー_1
 62
   250
100
AcDbLine
 10
-59.2448361647
 20
-131.6246588251
 30
0.0
 11
-61.4414290467
 21
-131.6246588251
 31
0.0
  0
LINE
  5
15C
330
F2
100
AcDbEntity
  8
レイヤー_1
 62
   250
100
AcDbLine
 10
-57.8854014859
 20
-123.22551603
 30
0.0
 11
-56.164231781
 21
-123.22551603
 31
0.0
  0
LINE
  5
15D
330
F2
100
AcDbEntity
  8
レイヤー_1
 62
   250
100
AcDbLine
 10
-53.2731076491
 20
-127.8805290508
 30
0.0
 11
-53.2731076491
 21
-129.0077642938
 31
0.0
  0
LINE
  5
15E
330
F2
100
AcDbEntity
  8
レイヤー_1
 62
   250
100
AcDbLine
 10
-54.5746647238
 20
-128.9505757088
 30
0.0
 11
-59.402621538
 21
-128.9505757088
 31
0.0
  0
LINE
  5
15F
330
F2
100
AcDbEntity
  8
レイヤー_1
 62
   250
100
AcDbLine
 10
-60.6463010085
 20
-129.0077642938
 30
0.0
 11
-60.6463010085
 21
-127.8943094327
 31
0.0
  0
LINE
  5
160
330
F2
100
AcDbEntity
  8
レイヤー_1
 62
   250
100
AcDbLine
 10
-77.3295204095
 20
-130.3665099536
 30
0.0
 11
-77.3295204095
 21
-128.8348205004
 31
0.0
  0
LINE
  5
161
330
F2
100
AcDbEntity
  8
レイヤー_1
 62
   250
100
AcDbLine
 10
-75.8398611213
 20
-128.9071675056
 30
0.0
 11
-72.3417111647
 21
-128.9071675056
 31
0.0
  0
LINE
  5
162
330
F2
100
AcDbEntity
  8
レイヤー_1
 62
   250
100
AcDbLine
 10
-70.8816796977
 20
-128.8348205004
 30
0.0
 11
-70.8816796977
 21
-130.3665099536
 31
0.0
  0
LINE
  5
163
330
F2
100
AcDbEntity
  8
レイヤー_1
 62
   250
100
AcDbLine
 10
-72.3272417637
 20
-130.2948519675
 30
0.0
 11
-73.3242523974
 21
-130.2948519675
 31
0.0
  0
LINE
  5
164
330
F2
100
AcDbEntity
  8
レイヤー_1
 62
   250
100
AcDbLine
 10
-73.3242523974
 20
-130.2948519675
 30
0.0
 11
-73.3242523974
 21
-133.5759609084
 31
0.0
  0
LINE
  5
165
330
F2
100
AcDbEntity
  8
レイヤー_1
 62
   250
100
AcDbLine
 10
-70.3607812602
 20
-132.9110574796
 30
0.0
 11
-70.3607812602
 21
-134.3862473668
 31
0.0
  0
LINE
  5
166
330
F2
100
AcDbEntity
  8
レイヤー_1
 62
   250
100
AcDbLine
 10
-77.5610308262
 20
-135.8318094327
 30
0.0
 11
-77.8207910258
 21
-134.1981451532
 31
0.0
  0
LINE
  5
167
330
F2
100
AcDbEntity
  8
レイヤー_1
 62
   250
100
AcDbLine
 10
-74.9151974929
 20
-133.8646599102
 30
0.0
 11
-74.9151974929
 21
-130.2948534033
 31
0.0
  0
LINE
  5
168
330
F2
100
AcDbEntity
  8
レイヤー_1
 62
   250
100
AcDbLine
 10
-74.9151974929
 20
-130.2948534033
 30
0.0
 11
-75.8694889425
 21
-130.2948519675
 31
0.0
  0
LINE
  5
169
330
F2
100
AcDbEntity
  8
レイヤー_1
 62
   250
100
AcDbLine
 10
-64.9974566074
 20
-125.5819613425
 30
0.0
 11
-64.9974566074
 21
-127.2004672018
 31
0.0
  0
LINE
  5
16A
330
F2
100
AcDbEntity
  8
レイヤー_1
 62
   250
100
AcDbLine
 10
-66.6889984911
 20
-127.1136507956
 30
0.0
 11
-68.7994639859
 21
-127.1136507956
 31
0.0
  0
LINE
  5
16B
330
F2
100
AcDbEntity
  8
レイヤー_1
 62
   250
100
AcDbLine
 10
-70.3752506613
 20
-127.1136507956
 30
0.0
 11
-76.1574989251
 21
-127.1136507956
 31
0.0
  0
LINE
  5
16C
330
F2
100
AcDbEntity
  8
レイヤー_1
 62
   250
100
AcDbLine
 10
-77.8490408088
 20
-127.2004672018
 30
0.0
 11
-77.8490408088
 21
-125.5819613425
 31
0.0
  0
LINE
  5
16D
330
F2
100
AcDbEntity
  8
レイヤー_1
 62
   250
100
AcDbLine
 10
-76.1574989251
 20
-125.6680887296
 30
0.0
 11
-70.4331282654
 21
-125.6680887296
 31
0.0
  0
LINE
  5
16E
330
F2
100
AcDbEntity
  8
レイヤー_1
 62
   250
100
AcDbLine
 10
-70.5626638557
 20
-123.3557406393
 30
0.0
 11
-68.8132443679
 21
-123.3557406393
 31
0.0
  0
LINE
  5
16F
330
F2
100
AcDbEntity
  8
レイヤー_1
 62
   250
100
AcDbLine
 10
-68.8573415901
 20
-125.6680887296
 30
0.0
 11
-67.1520193244
 21
-125.6680887296
 31
0.0
  0
LINE
  5
170
330
F2
100
AcDbEntity
  8
レイヤー_1
 62
   250
100
AcDbLine
 10
-68.5252343852
 20
-123.962766464
 30
0.0
 11
-67.2677745328
 21
-123.3702100404
 31
0.0
  0
LINE
  5
171
330
F2
100
AcDbEntity
  8
レイヤー_1
 62
   250
100
AcDbLine
 10
-65.8359928488
 20
-125.0031853008
 30
0.0
 11
-67.0066362949
 21
-125.6680887296
 31
0.0
  0
LINE
  5
172
330
F2
100
AcDbEntity
  8
レイヤー_1
 62
   250
100
AcDbLine
 10
-67.0066362949
 20
-125.6680887296
 30
0.0
 11
-66.3996104703
 21
-125.6680887296
 31
0.0
  0
LINE
  5
173
330
F2
100
AcDbEntity
  8
レイヤー_1
 62
   250
100
AcDbLine
 10
-88.6335677185
 20
-127.2294060039
 30
0.0
 11
-88.9946137255
 21
-127.2294060039
 31
0.0
  0
LINE
  5
174
330
F2
100
AcDbEntity
  8
レイヤー_1
 62
   250
100
AcDbLine
 10
-87.6365570849
 20
-129.5141933303
 30
0.0
 11
-87.6365570849
 21
-128.6894374709
 31
0.0
  0
LINE
  5
175
330
F2
100
AcDbEntity
  8
レイヤー_1
 62
   250
100
AcDbLine
 10
-86.0607704095
 20
-128.7769428963
 30
0.0
 11
-84.5277029182
 21
-128.7769428963
 31
0.0
  0
LINE
  5
176
330
F2
100
AcDbEntity
  8
レイヤー_1
 62
   250
100
AcDbLine
 10
-84.5277029182
 20
-128.7769428963
 30
0.0
 11
-84.5277122006
 21
-126.9551764032
 31
0.0
  0
LINE
  5
177
330
F2
100
AcDbEntity
  8
レイヤー_1
 62
   250
100
AcDbLine
 10
-84.5277122006
 20
-126.9551764032
 30
0.0
 11
-86.1765256179
 21
-126.9551764032
 31
0.0
  0
LINE
  5
178
330
F2
100
AcDbEntity
  8
レイヤー_1
 62
   250
100
AcDbLine
 10
-83.0242632481
 20
-128.7769428963
 30
0.0
 11
-80.8855479703
 21
-128.7769428963
 31
0.0
  0
LINE
  5
179
330
F2
100
AcDbEntity
  8
レイヤー_1
 62
   250
100
AcDbLine
 10
-79.3380110779
 20
-128.6894374709
 30
0.0
 11
-79.3380110779
 21
-130.3237907695
 31
0.0
  0
LINE
  5
17A
330
F2
100
AcDbEntity
  8
レイヤー_1
 62
   250
100
AcDbLine
 10
-80.8993283522
 20
-130.2507547452
 30
0.0
 11
-82.5192122498
 21
-130.2507547452
 31
0.0
  0
LINE
  5
17B
330
F2
100
AcDbEntity
  8
レイヤー_1
 62
   250
100
AcDbLine
 10
-83.0401106873
 20
-133.05575149
 30
0.0
 11
-83.0401106873
 21
-134.8775179831
 31
0.0
  0
LINE
  5
17C
330
F2
100
AcDbEntity
  8
レイヤー_1
 62
   250
100
AcDbLine
 10
-82.9526052619
 20
-136.5545904657
 30
0.0
 11
-84.6152083435
 21
-136.5545904657
 31
0.0
  0
LINE
  5
17D
330
F2
100
AcDbEntity
  8
レイヤー_1
 62
   250
100
AcDbLine
 10
-84.5277029182
 20
-134.8775179831
 30
0.0
 11
-84.5277029182
 21
-133.1570372973
 31
0.0
  0
LINE
  5
17E
330
F2
100
AcDbEntity
  8
レイヤー_1
 62
   250
100
AcDbLine
 10
-85.1064789599
 20
-130.2507547452
 30
0.0
 11
-86.0607704095
 21
-130.2507547452
 31
0.0
  0
LINE
  5
17F
330
F2
100
AcDbEntity
  8
レイヤー_1
 62
   250
100
AcDbLine
 10
-87.6365570849
 20
-130.3382601706
 30
0.0
 11
-87.6365570849
 21
-129.745703747
 31
0.0
  0
LINE
  5
180
330
F2
100
AcDbEntity
  8
レイヤー_1
 62
   250
100
AcDbLine
 10
-89.0821191508
 20
-131.0610412036
 30
0.0
 11
-89.0821191508
 21
-134.7617627747
 31
0.0
  0
LINE
  5
181
330
F2
100
AcDbEntity
  8
レイヤー_1
 62
   250
100
AcDbLine
 10
-88.9946137255
 20
-136.5401210647
 30
0.0
 11
-90.6716862081
 21
-136.5401210647
 31
0.0
  0
LINE
  5
182
330
F2
100
AcDbEntity
  8
レイヤー_1
 62
   250
100
AcDbLine
 10
-90.585558821
 20
-134.7617627747
 30
0.0
 11
-90.585558821
 21
-131.6535976272
 31
0.0
  0
LINE
  5
183
330
F2
100
AcDbEntity
  8
レイヤー_1
 62
   250
100
AcDbLine
 10
-90.7295638123
 20
-127.2294060039
 30
0.0
 11
-91.308339854
 21
-127.2294060039
 31
0.0
  0
LINE
  5
184
330
F2
100
AcDbEntity
  8
レイヤー_1
 62
   250
100
AcDbLine
 10
-92.2771007047
 20
-127.3017530091
 30
0.0
 11
-92.2771007047
 21
-125.7404357348
 31
0.0
  0
LINE
  5
185
330
F2
100
AcDbEntity
  8
レイヤー_1
 62
   250
100
AcDbLine
 10
-91.308339854
 20
-125.81278274
 30
0.0
 11
-90.585558821
 21
-125.81278274
 31
0.0
  0
LINE
  5
186
330
F2
100
AcDbEntity
  8
レイヤー_1
 62
   250
100
AcDbLine
 10
-90.585558821
 20
-125.81278274
 30
0.0
 11
-90.585558821
 21
-124.6421392938
 31
0.0
  0
LINE
  5
187
330
F2
100
AcDbEntity
  8
レイヤー_1
 62
   250
100
AcDbLine
 10
-90.6716862081
 20
-123.1531690247
 30
0.0
 11
-89.0104611647
 21
-123.1531690247
 31
0.0
  0
LINE
  5
188
330
F2
100
AcDbEntity
  8
レイヤー_1
 62
   250
100
AcDbLine
 10
-89.0821191508
 20
-124.6421392938
 30
0.0
 11
-89.0821191508
 21
-125.81278274
 31
0.0
  0
LINE
  5
189
330
F2
100
AcDbEntity
  8
レイヤー_1
 62
   250
100
AcDbLine
 10
-89.0821191508
 20
-125.81278274
 30
0.0
 11
-88.6487261387
 21
-125.81278274
 31
0.0
  0
LINE
  5
18A
330
F2
100
AcDbEntity
  8
レイヤー_1
 62
   250
100
AcDbLine
 10
-87.8680675015
 20
-125.7549051359
 30
0.0
 11
-87.8680675015
 21
-127.1859978008
 31
0.0
  0
LINE
  5
18B
330
F2
100
AcDbEntity
  8
レイヤー_1
 62
   250
100
AcDbLine
 10
-86.7697710606
 20
-123.6733784431
 30
0.0
 11
-85.2945811734
 21
-124.0488938511
 31
0.0
  0
LINE
  5
18C
330
F2
100
AcDbEntity
  8
レイヤー_1
 62
   250
100
AcDbLine
 10
-85.6997244026
 20
-125.5385531393
 30
0.0
 11
-84.5277029182
 21
-125.5385531393
 31
0.0
  0
LINE
  5
18D
330
F2
100
AcDbEntity
  8
レイヤー_1
 62
   250
100
AcDbLine
 10
-84.5277029182
 20
-125.5385531393
 30
0.0
 11
-84.5277029182
 21
-124.5408534866
 31
0.0
  0
LINE
  5
18E
330
F2
100
AcDbEntity
  8
レイヤー_1
 62
   250
100
AcDbLine
 10
-84.6152083435
 20
-123.1683274449
 30
0.0
 11
-82.9381358609
 21
-123.1683274449
 31
0.0
  0
LINE
  5
18F
330
F2
100
AcDbEntity
  8
レイヤー_1
 62
   250
100
AcDbLine
 10
-83.0242632481
 20
-124.5408534866
 30
0.0
 11
-83.0242632481
 21
-125.5385531393
 31
0.0
  0
LINE
  5
190
330
F2
100
AcDbEntity
  8
レイヤー_1
 62
   250
100
AcDbLine
 10
-83.0242632481
 20
-125.5385531393
 30
0.0
 11
-81.3189409824
 21
-125.5385531393
 31
0.0
  0
LINE
  5
191
330
F2
100
AcDbEntity
  8
レイヤー_1
 62
   250
100
AcDbLine
 10
-79.7714040901
 20
-125.4517367331
 30
0.0
 11
-79.7714040901
 21
-127.0419928095
 31
0.0
  0
LINE
  5
192
330
F2
100
AcDbEntity
  8
レイヤー_1
 62
   250
100
AcDbLine
 10
-81.3189409824
 20
-126.9551764032
 30
0.0
 11
-83.0242632481
 21
-126.9551764032
 31
0.0
  0
LINE
  5
193
330
F2
100
AcDbEntity
  8
レイヤー_1
 62
   250
100
AcDbLine
 10
-83.0242632481
 20
-126.9551764032
 30
0.0
 11
-83.0242632481
 21
-128.7769428963
 31
0.0
  0
SPLINE
  5
194
330
F2
100
AcDbEntity
  8
レイヤー_1
 62
   250
100
AcDbSpline
210
0.0
220
0.0
230
1.0
 70
     8
 71
     3
 72
     8
 73
     4
 74
     0
 42
0.000000001
 43
0.00000001
 40
0.0
 40
0.0
 40
0.0
 40
0.0
 40
1.0
 40
1.0
 40
1.0
 40
1.0
 10
39.13262151756521
 20
-124.5987310907191
 30
0.0
 10
40.85310220332912
 20
-125.6680887296081
 30
0.0
 10
41.74882702971797
 20
-126.3329921584275
 30
0.0
 10
42.86228189082914
 20
-127.3892584344691
 30
0.0
  0
SPLINE
  5
195
330
F2
100
AcDbEntity
  8
レイヤー_1
 62
   250
100
AcDbSpline
210
0.0
220
0.0
230
1.0
 70
     8
 71
     3
 72
     8
 73
     4
 74
     0
 42
0.000000001
 43
0.00000001
 40
2.0
 40
2.0
 40
2.0
 40
2.0
 40
3.0
 40
3.0
 40
3.0
 40
3.0
 10
41.618602420343
 20
-128.9650451098164
 30
0.0
 10
40.46242837520418
 20
-127.7358350403719
 30
0.0
 10
39.27662650888471
 20
-126.7822326098164
 30
0.0
 10
37.93235025020414
 20
-126.0298237556497
 30
0.0
  0
SPLINE
  5
196
330
F2
100
AcDbEntity
  8
レイヤー_1
 62
   250
100
AcDbSpline
210
0.0
220
0.0
230
1.0
 70
     8
 71
     3
 72
     8
 73
     4
 74
     0
 42
0.000000001
 43
0.00000001
 40
0.0
 40
0.0
 40
0.0
 40
0.0
 40
1.0
 40
1.0
 40
1.0
 40
1.0
 10
37.90410046721797
 20
-133.5759609084275
 30
0.0
 10
39.14640189950967
 20
-133.5036139032191
 30
0.0
 10
40.86757160437077
 20
-133.0840012730108
 30
0.0
 10
42.18359808006523
 20
-132.5066032695386
 30
0.0
  0
SPLINE
  5
197
330
F2
100
AcDbEntity
  8
レイヤー_1
 62
   250
100
AcDbSpline
210
0.0
220
0.0
230
1.0
 70
     8
 71
     3
 72
     8
 73
     4
 74
     0
 42
0.000000001
 43
0.00000001
 40
1.0
 40
1.0
 40
1.0
 40
1.0
 40
2.0
 40
2.0
 40
2.0
 40
2.0
 10
42.18359808006523
 20
-132.5066032695386
 30
0.0
 10
43.99020615298191
 20
-131.7259446323858
 30
0.0
 10
45.33448241166241
 20
-130.6124897712747
 30
0.0
 10
46.47618705575968
 20
-128.9650451098164
 30
0.0
  0
SPLINE
  5
198
330
F2
100
AcDbEntity
  8
レイヤー_1
 62
   250
100
AcDbSpline
210
0.0
220
0.0
230
1.0
 70
     8
 71
     3
 72
     8
 73
     4
 74
     0
 42
0.000000001
 43
0.00000001
 40
2.0
 40
2.0
 40
2.0
 40
2.0
 40
3.0
 40
3.0
 40
3.0
 40
3.0
 10
46.47618705575968
 20
-128.9650451098164
 30
0.0
 10
47.11146266339858
 20
-128.0390034431497
 30
0.0
 10
47.51729491166247
 20
-127.2438754049553
 30
0.0
 10
47.95068792381522
 20
-126.0732319587747
 30
0.0
  0
SPLINE
  5
199
330
F2
100
AcDbEntity
  8
レイヤー_1
 62
   250
100
AcDbSpline
210
0.0
220
0.0
230
1.0
 70
     8
 71
     3
 72
     8
 73
     4
 74
     0
 42
0.000000001
 43
0.00000001
 40
3.0
 40
3.0
 40
3.0
 40
3.0
 40
4.0
 40
4.0
 40
4.0
 40
4.0
 10
47.95068792381522
 20
-126.0732319587747
 30
0.0
 10
48.5149945644402
 20
-126.7526047886358
 30
0.0
 10
48.74650498110691
 20
-126.9696458042608
 30
0.0
 10
49.48375541513468
 20
-127.4898552226636
 30
0.0
  0
SPLINE
  5
19A
330
F2
100
AcDbEntity
  8
レイヤー_1
 62
   250
100
AcDbSpline
210
0.0
220
0.0
230
1.0
 70
     8
 71
     3
 72
     8
 73
     4
 74
     0
 42
0.000000001
 43
0.00000001
 40
4.0
 40
4.0
 40
4.0
 40
4.0
 40
5.0
 40
5.0
 40
5.0
 40
5.0
 10
49.48375541513468
 20
-127.4898552226636
 30
0.0
 10
48.253856326593
 20
-130.1349995368997
 30
0.0
 10
46.88133028492638
 20
-131.8416998407192
 30
0.0
 10
44.90108939950966
 20
-133.1570372973164
 30
0.0
  0
SPLINE
  5
19B
330
F2
100
AcDbEntity
  8
レイヤー_1
 62
   250
100
AcDbSpline
210
0.0
220
0.0
230
1.0
 70
     8
 71
     3
 72
     8
 73
     4
 74
     0
 42
0.000000001
 43
0.00000001
 40
5.0
 40
5.0
 40
5.0
 40
5.0
 40
6.0
 40
6.0
 40
6.0
 40
6.0
 10
44.90108939950966
 20
-133.1570372973164
 30
0.0
 10
43.42589951235693
 20
-134.1402675490525
 30
0.0
 10
41.6330718213847
 20
-134.8485791809969
 30
0.0
 10
39.39238171721798
 20
-135.3253803962747
 30
0.0
  0
SPLINE
  5
19C
330
F2
100
AcDbEntity
  8
レイヤー_1
 62
   250
100
AcDbSpline
210
0.0
220
0.0
230
1.0
 70
     8
 71
     3
 72
     8
 73
     4
 74
     0
 42
0.000000001
 43
0.00000001
 40
6.0
 40
6.0
 40
6.0
 40
6.0
 40
7.0
 40
7.0
 40
7.0
 40
7.0
 10
39.39238171721798
 20
-135.3253803962747
 30
0.0
 10
38.81498371374579
 20
-135.4411356046081
 30
0.0
 10
38.77088649152358
 20
-135.4562940247469
 30
0.0
 10
38.4380902675652
 20
-135.5713602139831
 30
0.0
  0
SPLINE
  5
19D
330
F2
100
AcDbEntity
  8
レイヤー_1
 62
   250
100
AcDbSpline
210
0.0
220
0.0
230
1.0
 70
     8
 71
     3
 72
     8
 73
     4
 74
     0
 42
0.000000001
 43
0.00000001
 40
0.0
 40
0.0
 40
0.0
 40
0.0
 40
1.0
 40
1.0
 40
1.0
 40
1.0
 10
35.98173718596797
 20
-124.7289557000942
 30
0.0
 10
35.73575736825967
 20
-124.9453076966219
 30
0.0
 10
35.66203232485691
 20
-125.0031853007886
 30
0.0
 10
35.44636934742636
 20
-125.2346957174553
 30
0.0
  0
SPLINE
  5
19E
330
F2
100
AcDbEntity
  8
レイヤー_1
 62
   250
100
AcDbSpline
210
0.0
220
0.0
230
1.0
 70
     8
 71
     3
 72
     8
 73
     4
 74
     0
 42
0.000000001
 43
0.00000001
 40
1.0
 40
1.0
 40
1.0
 40
1.0
 40
2.0
 40
2.0
 40
2.0
 40
2.0
 10
35.44636934742636
 20
-125.2346957174553
 30
0.0
 10
34.36185328839855
 20
-126.3626199796081
 30
0.0
 10
33.278026248468
 20
-127.3017530091219
 30
0.0
 10
32.03434677798192
 20
-128.2126362556497
 30
0.0
  0
SPLINE
  5
19F
330
F2
100
AcDbEntity
  8
レイヤー_1
 62
   250
100
AcDbSpline
210
0.0
220
0.0
230
1.0
 70
     8
 71
     3
 72
     8
 73
     4
 74
     0
 42
0.000000001
 43
0.00000001
 40
3.0
 40
3.0
 40
3.0
 40
3.0
 40
4.0
 40
4.0
 40
4.0
 40
4.0
 10
32.03434677798192
 20
-134.3862473667608
 30
0.0
 10
32.03434677798192
 20
-135.1806863858581
 30
0.0
 10
32.04812715992637
 20
-135.6002990160664
 30
0.0
 10
32.10600476409297
 20
-135.9902838250942
 30
0.0
  0
SPLINE
  5
1A0
330
F2
100
AcDbEntity
  8
レイヤー_1
 62
   250
100
AcDbSpline
210
0.0
220
0.0
230
1.0
 70
     8
 71
     3
 72
     8
 73
     4
 74
     0
 42
0.000000001
 43
0.00000001
 40
5.0
 40
5.0
 40
5.0
 40
5.0
 40
6.0
 40
6.0
 40
6.0
 40
6.0
 10
30.08304469464855
 20
-135.9902838250942
 30
0.0
 10
30.15539169985692
 20
-135.5713602139831
 30
0.0
 10
30.16917208180138
 20
-135.2826612122469
 30
0.0
 10
30.16917208180138
 20
-134.4289665507886
 30
0.0
  0
SPLINE
  5
1A1
330
F2
100
AcDbEntity
  8
レイヤー_1
 62
   250
100
AcDbSpline
210
0.0
220
0.0
230
1.0
 70
     8
 71
     3
 72
     8
 73
     4
 74
     0
 42
0.000000001
 43
0.00000001
 40
7.0
 40
7.0
 40
7.0
 40
7.0
 40
8.0
 40
8.0
 40
8.0
 40
8.0
 10
30.16917208180138
 20
-129.3405605178025
 30
0.0
 10
28.47763019812078
 20
-130.3527295716219
 30
0.0
 10
27.66872177798189
 20
-130.7282449796081
 30
0.0
 10
25.00910806270412
 20
-131.6825364292608
 30
0.0
  0
SPLINE
  5
1A2
330
F2
100
AcDbEntity
  8
レイヤー_1
 62
   250
100
AcDbSpline
210
0.0
220
0.0
230
1.0
 70
     8
 71
     3
 72
     8
 73
     4
 74
     0
 42
0.000000001
 43
0.00000001
 40
8.0
 40
8.0
 40
8.0
 40
8.0
 40
9.0
 40
9.0
 40
9.0
 40
9.0
 10
25.00910806270412
 20
-131.6825364292608
 30
0.0
 10
24.70593965992635
 20
-130.9308165941914
 30
0.0
 10
24.54608722937076
 20
-130.6848367764831
 30
0.0
 10
24.03896917381525
 20
-130.0350917678025
 30
0.0
  0
SPLINE
  5
1A3
330
F2
100
AcDbEntity
  8
レイヤー_1
 62
   250
100
AcDbSpline
210
0.0
220
0.0
230
1.0
 70
     8
 71
     3
 72
     8
 73
     4
 74
     0
 42
0.000000001
 43
0.00000001
 40
9.0
 40
9.0
 40
9.0
 40
9.0
 40
10.0
 40
10.0
 40
10.0
 40
10.0
 10
24.03896917381525
 20
-130.0350917678025
 30
0.0
 10
26.90253254187076
 20
-129.2544331306497
 30
0.0
 10
29.33063584048193
 20
-128.0541618632886
 30
0.0
 10
31.62920354881521
 20
-126.2751145542608
 30
0.0
  0
SPLINE
  5
1A4
330
F2
100
AcDbEntity
  8
レイヤー_1
 62
   250
100
AcDbSpline
210
0.0
220
0.0
230
1.0
 70
     8
 71
     3
 72
     8
 73
     4
 74
     0
 42
0.000000001
 43
0.00000001
 40
10.0
 40
10.0
 40
10.0
 40
10.0
 40
11.0
 40
11.0
 40
11.0
 40
11.0
 10
31.62920354881521
 20
-126.2751145542608
 30
0.0
 10
32.91629122242637
 20
-125.2787929396775
 30
0.0
 10
33.89883245506525
 20
-124.2804042678025
 30
0.0
 10
34.31844508527359
 20
-123.5720926358581
 30
0.0
  0
SPLINE
  5
1A5
330
F2
100
AcDbEntity
  8
レイヤー_1
 62
   250
100
AcDbSpline
210
0.0
220
0.0
230
1.0
 70
     8
 71
     3
 72
     8
 73
     4
 74
     0
 42
0.000000001
 43
0.00000001
 40
0.0
 40
0.0
 40
0.0
 40
0.0
 40
1.0
 40
1.0
 40
1.0
 40
1.0
 10
23.11430554534297
 20
-125.5385531393303
 30
0.0
 10
22.86763670853747
 20
-124.8295524882886
 30
0.0
 10
22.57962672589855
 20
-124.1942768806497
 30
0.0
 10
22.21789169985692
 20
-123.5720926358581
 30
0.0
  0
SPLINE
  5
1A6
330
F2
100
AcDbEntity
  8
レイヤー_1
 62
   250
100
AcDbSpline
210
0.0
220
0.0
230
1.0
 70
     8
 71
     3
 72
     8
 73
     4
 74
     0
 42
0.000000001
 43
0.00000001
 40
2.0
 40
2.0
 40
2.0
 40
2.0
 40
3.0
 40
3.0
 40
3.0
 40
3.0
 10
23.22868271548191
 20
-123.1965772278719
 30
0.0
 10
23.66345376582911
 20
-123.8614806566914
 30
0.0
 10
23.92321396548192
 20
-124.4106288771775
 30
0.0
 10
24.15541340124583
 20
-125.1051601271775
 30
0.0
  0
SPLINE
  5
1A7
330
F2
100
AcDbEntity
  8
レイヤー_1
 62
   250
100
AcDbSpline
210
0.0
220
0.0
230
1.0
 70
     8
 71
     3
 72
     8
 73
     4
 74
     0
 42
0.000000001
 43
0.00000001
 40
0.0
 40
0.0
 40
0.0
 40
0.0
 40
1.0
 40
1.0
 40
1.0
 40
1.0
 10
21.68321288041244
 20
-123.702317245233
 30
0.0
 10
22.1303862745097
 20
-124.3961594761358
 30
0.0
 10
22.3481163092319
 20
-124.8736497105108
 30
0.0
 10
22.62165689082912
 20
-125.7121859518302
 30
0.0
  0
SPLINE
  5
1A8
330
F2
100
AcDbEntity
  8
レイヤー_1
 62
   250
100
AcDbSpline
210
0.0
220
0.0
230
1.0
 70
     8
 71
     3
 72
     8
 73
     4
 74
     0
 42
0.000000001
 43
0.00000001
 40
2.0
 40
2.0
 40
2.0
 40
2.0
 40
3.0
 40
3.0
 40
3.0
 40
3.0
 10
21.55298827103746
 20
-126.1166401618997
 30
0.0
 10
21.30769747242636
 20
-125.3504509257886
 30
0.0
 10
21.01830945159304
 20
-124.7137972799552
 30
0.0
 10
20.6269466043708
 20
-124.0785216723164
 30
0.0
  0
SPLINE
  5
1A9
330
F2
100
AcDbEntity
  8
レイヤー_1
 62
   250
100
AcDbSpline
210
0.0
220
0.0
230
1.0
 70
     8
 71
     3
 72
     8
 73
     4
 74
     0
 42
0.000000001
 43
0.00000001
 40
2.0
 40
2.0
 40
2.0
 40
2.0
 40
3.0
 40
3.0
 40
3.0
 40
3.0
 10
18.77761934742637
 20
-125.3938591289136
 30
0.0
 10
18.77761934742637
 20
-124.4402566983581
 30
0.0
 10
18.76246092728746
 20
-124.1219298754414
 30
0.0
 10
18.7045833231208
 20
-123.7753532695386
 30
0.0
  0
SPLINE
  5
1AA
330
F2
100
AcDbEntity
  8
レイヤー_1
 62
   250
100
AcDbSpline
210
0.0
220
0.0
230
1.0
 70
     8
 71
     3
 72
     8
 73
     4
 74
     0
 42
0.000000001
 43
0.00000001
 40
4.0
 40
4.0
 40
4.0
 40
4.0
 40
5.0
 40
5.0
 40
5.0
 40
5.0
 10
20.56906900020414
 20
-123.7753532695386
 30
0.0
 10
20.52703883527357
 20
-124.1219298754414
 30
0.0
 10
20.51119139603747
 20
-124.179807479608
 30
0.0
 10
20.51119139603747
 20
-124.7578945021775
 30
0.0
  0
SPLINE
  5
1AB
330
F2
100
AcDbEntity
  8
レイヤー_1
 62
   250
100
AcDbSpline
210
0.0
220
0.0
230
1.0
 70
     8
 71
     3
 72
     8
 73
     4
 74
     0
 42
0.000000001
 43
0.00000001
 40
5.0
 40
5.0
 40
5.0
 40
5.0
 40
6.0
 40
6.0
 40
6.0
 40
6.0
 10
20.51119139603747
 20
-124.7578945021775
 30
0.0
 10
20.51119139603747
 20
-125.6398389466219
 30
0.0
 10
20.51119139603747
 20
-125.6398389466219
 30
0.0
 10
20.49741101409302
 20
-126.5066249709275
 30
0.0
  0
SPLINE
  5
1AC
330
F2
100
AcDbEntity
  8
レイヤー_1
 62
   250
100
AcDbSpline
210
0.0
220
0.0
230
1.0
 70
     8
 71
     3
 72
     8
 73
     4
 74
     0
 42
0.000000001
 43
0.00000001
 40
7.0
 40
7.0
 40
7.0
 40
7.0
 40
8.0
 40
8.0
 40
8.0
 40
8.0
 10
21.42207464256524
 20
-126.5066249709275
 30
0.0
 10
22.44940211652357
 20
-126.5066249709275
 30
0.0
 10
22.73741209916244
 20
-126.492844588983
 30
0.0
 10
23.30240775888467
 20
-126.4060281827331
 30
0.0
  0
SPLINE
  5
1AD
330
F2
100
AcDbEntity
  8
レイヤー_1
 62
   250
100
AcDbSpline
210
0.0
220
0.0
230
1.0
 70
     8
 71
     3
 72
     8
 73
     4
 74
     0
 42
0.000000001
 43
0.00000001
 40
9.0
 40
9.0
 40
9.0
 40
9.0
 40
10.0
 40
10.0
 40
10.0
 40
10.0
 10
23.30240775888467
 20
-128.169917071622
 30
0.0
 10
22.7952897033291
 20
-128.1120394674553
 30
0.0
 10
22.40599391339856
 20
-128.0968810473164
 30
0.0
 10
21.45170246374579
 20
-128.0968810473164
 30
0.0
  0
SPLINE
  5
1AE
330
F2
100
AcDbEntity
  8
レイヤー_1
 62
   250
100
AcDbSpline
210
0.0
220
0.0
230
1.0
 70
     8
 71
     3
 72
     8
 73
     4
 74
     0
 42
0.000000001
 43
0.00000001
 40
11.0
 40
11.0
 40
11.0
 40
11.0
 40
12.0
 40
12.0
 40
12.0
 40
12.0
 10
20.48294161305137
 20
-128.0968810473164
 30
0.0
 10
20.45331379187076
 20
-129.8173617330803
 30
0.0
 10
20.45331379187076
 20
-129.9193365594692
 30
0.0
 10
20.38165580575964
 20
-130.4684847799553
 30
0.0
  0
SPLINE
  5
1AF
330
F2
100
AcDbEntity
  8
レイヤー_1
 62
   250
100
AcDbSpline
210
0.0
220
0.0
230
1.0
 70
     8
 71
     3
 72
     8
 73
     4
 74
     0
 42
0.000000001
 43
0.00000001
 40
12.0
 40
12.0
 40
12.0
 40
12.0
 40
13.0
 40
13.0
 40
13.0
 40
13.0
 10
20.38165580575964
 20
-130.4684847799553
 30
0.0
 10
20.17977321027359
 20
-132.318501055997
 30
0.0
 10
19.5582779845791
 20
-133.5470221063442
 30
0.0
 10
18.30081813214855
 20
-134.6177577834275
 30
0.0
  0
SPLINE
  5
1B0
330
F2
100
AcDbEntity
  8
レイヤー_1
 62
   250
100
AcDbSpline
210
0.0
220
0.0
230
1.0
 70
     8
 71
     3
 72
     8
 73
     4
 74
     0
 42
0.000000001
 43
0.00000001
 40
13.0
 40
13.0
 40
13.0
 40
13.0
 40
14.0
 40
14.0
 40
14.0
 40
14.0
 10
18.30081813214855
 20
-134.6177577834275
 30
0.0
 10
17.51947047589857
 20
-135.2826612122469
 30
0.0
 10
16.8111588439541
 20
-135.6581766202331
 30
0.0
 10
15.48135198631525
 20
-136.1349778355108
 30
0.0
  0
SPLINE
  5
1B1
330
F2
100
AcDbEntity
  8
レイヤー_1
 62
   250
100
AcDbSpline
210
0.0
220
0.0
230
1.0
 70
     8
 71
     3
 72
     8
 73
     4
 74
     0
 42
0.000000001
 43
0.00000001
 40
14.0
 40
14.0
 40
14.0
 40
14.0
 40
15.0
 40
15.0
 40
15.0
 40
15.0
 10
15.48135198631525
 20
-136.1349778355108
 30
0.0
 10
15.20574434742633
 20
-135.5134826098164
 30
0.0
 10
15.01833115298189
 20
-135.2385639900247
 30
0.0
 10
14.39683592728744
 20
-134.6025993632886
 30
0.0
  0
SPLINE
  5
1B2
330
F2
100
AcDbEntity
  8
レイヤー_1
 62
   250
100
AcDbSpline
210
0.0
220
0.0
230
1.0
 70
     8
 71
     3
 72
     8
 73
     4
 74
     0
 42
0.000000001
 43
0.00000001
 40
15.0
 40
15.0
 40
15.0
 40
15.0
 40
16.0
 40
16.0
 40
16.0
 40
16.0
 10
14.39683592728744
 20
-134.6025993632886
 30
0.0
 10
15.77074000714856
 20
-134.1829867330803
 30
0.0
 10
16.46389321895418
 20
-133.8364101271775
 30
0.0
 10
17.15842446895414
 20
-133.2293843025247
 30
0.0
  0
SPLINE
  5
1B3
330
F2
100
AcDbEntity
  8
レイヤー_1
 62
   250
100
AcDbSpline
210
0.0
220
0.0
230
1.0
 70
     8
 71
     3
 72
     8
 73
     4
 74
     0
 42
0.000000001
 43
0.00000001
 40
16.0
 40
16.0
 40
16.0
 40
16.0
 40
17.0
 40
17.0
 40
17.0
 40
17.0
 10
17.15842446895414
 20
-133.2293843025247
 30
0.0
 10
18.14096570159302
 20
-132.3763786601636
 30
0.0
 10
18.56057833180137
 20
-131.422776229608
 30
0.0
 10
18.69011392207909
 20
-129.7594841289136
 30
0.0
  0
SPLINE
  5
1B4
330
F2
100
AcDbEntity
  8
レイヤー_1
 62
   250
100
AcDbSpline
210
0.0
220
0.0
230
1.0
 70
     8
 71
     3
 72
     8
 73
     4
 74
     0
 42
0.000000001
 43
0.00000001
 40
17.0
 40
17.0
 40
17.0
 40
17.0
 40
18.0
 40
18.0
 40
18.0
 40
18.0
 10
18.69011392207909
 20
-129.7594841289136
 30
0.0
 10
18.71974174325971
 20
-129.4418463250942
 30
0.0
 10
18.71974174325971
 20
-129.0945807000942
 30
0.0
 10
18.74799152624576
 20
-128.0968810473164
 30
0.0
  0
SPLINE
  5
1B5
330
F2
100
AcDbEntity
  8
レイヤー_1
 62
   250
100
AcDbSpline
210
0.0
220
0.0
230
1.0
 70
     8
 71
     3
 72
     8
 73
     4
 74
     0
 42
0.000000001
 43
0.00000001
 40
20.0
 40
20.0
 40
20.0
 40
20.0
 40
21.0
 40
21.0
 40
21.0
 40
21.0
 10
15.00386175194024
 20
-130.2507547452331
 30
0.0
 10
15.00386175194024
 20
-130.8577805698858
 30
0.0
 10
15.01833115298189
 20
-131.0892909865525
 30
0.0
 10
15.0617393561069
 20
-131.4654954136358
 30
0.0
  0
SPLINE
  5
1B6
330
F2
100
AcDbEntity
  8
レイヤー_1
 62
   250
100
AcDbSpline
210
0.0
220
0.0
230
1.0
 70
     8
 71
     3
 72
     8
 73
     4
 74
     0
 42
0.000000001
 43
0.00000001
 40
22.0
 40
22.0
 40
22.0
 40
22.0
 40
23.0
 40
23.0
 40
23.0
 40
23.0
 10
13.18278427798191
 20
-131.4654954136358
 30
0.0
 10
13.22550346200967
 20
-131.1471685907192
 30
0.0
 10
13.24066188214857
 20
-130.771653182733
 30
0.0
 10
13.24066188214857
 20
-130.2225049622469
 30
0.0
  0
SPLINE
  5
1B7
330
F2
100
AcDbEntity
  8
レイヤー_1
 62
   250
100
AcDbSpline
210
0.0
220
0.0
230
1.0
 70
     8
 71
     3
 72
     8
 73
     4
 74
     0
 42
0.000000001
 43
0.00000001
 40
25.0
 40
25.0
 40
25.0
 40
25.0
 40
26.0
 40
26.0
 40
26.0
 40
26.0
 10
12.35802841860692
 20
-128.0968810473164
 30
0.0
 10
11.40373696895409
 20
-128.0968810473164
 30
0.0
 10
11.01444117902355
 20
-128.1120394674553
 30
0.0
 10
10.50732312346804
 20
-128.169917071622
 30
0.0
  0
SPLINE
  5
1B8
330
F2
100
AcDbEntity
  8
レイヤー_1
 62
   250
100
AcDbSpline
210
0.0
220
0.0
230
1.0
 70
     8
 71
     3
 72
     8
 73
     4
 74
     0
 42
0.000000001
 43
0.00000001
 40
27.0
 40
27.0
 40
27.0
 40
27.0
 40
28.0
 40
28.0
 40
28.0
 40
28.0
 10
10.50732312346804
 20
-126.4060281827331
 30
0.0
 10
11.07231878319027
 20
-126.492844588983
 30
0.0
 10
11.36032876582908
 20
-126.5066249709275
 30
0.0
 10
12.38627820159303
 20
-126.5066249709275
 30
0.0
  0
SPLINE
  5
1B9
330
F2
100
AcDbEntity
  8
レイヤー_1
 62
   250
100
AcDbSpline
210
0.0
220
0.0
230
1.0
 70
     8
 71
     3
 72
     8
 73
     4
 74
     0
 42
0.000000001
 43
0.00000001
 40
30.0
 40
30.0
 40
30.0
 40
30.0
 40
31.0
 40
31.0
 40
31.0
 40
31.0
 10
13.24066188214857
 20
-125.0610629049552
 30
0.0
 10
13.24066188214857
 20
-124.4540370803025
 30
0.0
 10
13.22550346200967
 20
-124.1508686775247
 30
0.0
 10
13.16762585784301
 20
-123.7753532695386
 30
0.0
  0
SPLINE
  5
1BA
330
F2
100
AcDbEntity
  8
レイヤー_1
 62
   250
100
AcDbSpline
210
0.0
220
0.0
230
1.0
 70
     8
 71
     3
 72
     8
 73
     4
 74
     0
 42
0.000000001
 43
0.00000001
 40
32.0
 40
32.0
 40
32.0
 40
32.0
 40
33.0
 40
33.0
 40
33.0
 40
33.0
 10
15.0617393561069
 20
-123.7753532695386
 30
0.0
 10
15.00386175194024
 20
-124.2521544848164
 30
0.0
 10
15.00386175194024
 20
-124.2804042678025
 30
0.0
 10
15.00386175194024
 20
-125.0031853007886
 30
0.0
  0
SPLINE
  5
1BB
330
F2
100
AcDbEntity
  8
レイヤー_1
 62
   250
100
AcDbSpline
210
0.0
220
0.0
230
1.0
 70
     8
 71
     3
 72
     8
 73
     4
 74
     0
 42
0.000000001
 43
0.00000001
 40
0.0
 40
0.0
 40
0.0
 40
0.0
 40
1.0
 40
1.0
 40
1.0
 40
1.0
 10
8.975633670343015
 20
-126.4487473667608
 30
0.0
 10
8.686245649509672
 20
-125.6977165507886
 30
0.0
 10
8.484363054023575
 20
-125.2787929396775
 30
0.0
 10
7.979312055759679
 20
-124.4685064813442
 30
0.0
  0
SPLINE
  5
1BC
330
F2
100
AcDbEntity
  8
レイヤー_1
 62
   250
100
AcDbSpline
210
0.0
220
0.0
230
1.0
 70
     8
 71
     3
 72
     8
 73
     4
 74
     0
 42
0.000000001
 43
0.00000001
 40
2.0
 40
2.0
 40
2.0
 40
2.0
 40
3.0
 40
3.0
 40
3.0
 40
3.0
 10
9.047980675551358
 20
-124.0488938511358
 30
0.0
 10
9.597128896037475
 20
-124.8736497105108
 30
0.0
 10
9.800389529718018
 20
-125.249165118497
 30
0.0
 10
10.06014972937078
 20
-125.9864155525247
 30
0.0
  0
SPLINE
  5
1BD
330
F2
100
AcDbEntity
  8
レイヤー_1
 62
   250
100
AcDbSpline
210
0.0
220
0.0
230
1.0
 70
     8
 71
     3
 72
     8
 73
     4
 74
     0
 42
0.000000001
 43
0.00000001
 40
0.0
 40
0.0
 40
0.0
 40
0.0
 40
1.0
 40
1.0
 40
1.0
 40
1.0
 10
7.458413618259684
 20
-124.613889510858
 30
0.0
 10
8.007561838745787
 20
-125.4517367330803
 30
0.0
 10
8.181194651245804
 20
-125.7983133389831
 30
0.0
 10
8.47058267207909
 20
-126.6368495803025
 30
0.0
  0
SPLINE
  5
1BE
330
F2
100
AcDbEntity
  8
レイヤー_1
 62
   250
100
AcDbSpline
210
0.0
220
0.0
230
1.0
 70
     8
 71
     3
 72
     8
 73
     4
 74
     0
 42
0.000000001
 43
0.00000001
 40
2.0
 40
2.0
 40
2.0
 40
2.0
 40
3.0
 40
3.0
 40
3.0
 40
3.0
 10
7.356438791870787
 20
-127.0998704136358
 30
0.0
 10
7.096678592218026
 20
-126.3192117764831
 30
0.0
 10
6.879637576593026
 20
-125.8858187643303
 30
0.0
 10
6.402147342218016
 20
-125.118940509122
 30
0.0
  0
SPLINE
  5
1BF
330
F2
100
AcDbEntity
  8
レイヤー_1
 62
   250
100
AcDbSpline
210
0.0
220
0.0
230
1.0
 70
     8
 71
     3
 72
     8
 73
     4
 74
     0
 42
0.000000001
 43
0.00000001
 40
4.0
 40
4.0
 40
4.0
 40
4.0
 40
5.0
 40
5.0
 40
5.0
 40
5.0
 10
6.402147342218016
 20
-125.8858187643303
 30
0.0
 10
5.924657107843032
 20
-125.8279411601636
 30
0.0
 10
5.578769521037473
 20
-125.8127827400247
 30
0.0
 10
4.566600467218009
 20
-125.8127827400247
 30
0.0
  0
SPLINE
  5
1C0
330
F2
100
AcDbEntity
  8
レイヤー_1
 62
   250
100
AcDbSpline
210
0.0
220
0.0
230
1.0
 70
     8
 71
     3
 72
     8
 73
     4
 74
     0
 42
0.000000001
 43
0.00000001
 40
6.0
 40
6.0
 40
6.0
 40
6.0
 40
7.0
 40
7.0
 40
7.0
 40
7.0
 10
0.1858170470790979
 20
-125.8127827400247
 30
0.0
 10
-0.8263520067403078
 20
-125.8127827400247
 30
0.0
 10
-1.172239593545882
 20
-125.8279411601636
 30
0.0
 10
-1.649040808823642
 20
-125.8858187643303
 30
0.0
  0
SPLINE
  5
1C1
330
F2
100
AcDbEntity
  8
レイヤー_1
 62
   250
100
AcDbSpline
210
0.0
220
0.0
230
1.0
 70
     8
 71
     3
 72
     8
 73
     4
 74
     0
 42
0.000000001
 43
0.00000001
 40
8.0
 40
8.0
 40
8.0
 40
8.0
 40
9.0
 40
9.0
 40
9.0
 40
9.0
 10
-1.649040808823642
 20
-124.1219298754414
 30
0.0
 10
-1.114361989379205
 20
-124.2087462816914
 30
0.0
 10
-0.8263520067403078
 20
-124.2225266636358
 30
0.0
 10
0.2154448682596668
 20
-124.2225266636358
 30
0.0
  0
SPLINE
  5
1C2
330
F2
100
AcDbEntity
  8
レイヤー_1
 62
   250
100
AcDbSpline
210
0.0
220
0.0
230
1.0
 70
     8
 71
     3
 72
     8
 73
     4
 74
     0
 42
0.000000001
 43
0.00000001
 40
10.0
 40
10.0
 40
10.0
 40
10.0
 40
11.0
 40
11.0
 40
11.0
 40
11.0
 10
4.536972646037455
 20
-124.2225266636358
 30
0.0
 10
5.578769521037473
 20
-124.2225266636358
 30
0.0
 10
5.868157541870787
 20
-124.2087462816914
 30
0.0
 10
6.402147342218016
 20
-124.1219298754414
 30
0.0
  0
SPLINE
  5
1C3
330
F2
100
AcDbEntity
  8
レイヤー_1
 62
   250
100
AcDbSpline
210
0.0
220
0.0
230
1.0
 70
     8
 71
     3
 72
     8
 73
     4
 74
     0
 42
0.000000001
 43
0.00000001
 40
0.0
 40
0.0
 40
0.0
 40
0.0
 40
1.0
 40
1.0
 40
1.0
 40
1.0
 10
4.147676856106912
 20
-129.4273769240525
 30
0.0
 10
4.075329850898598
 20
-131.0892909865525
 30
0.0
 10
3.756314008884701
 20
-132.2895622539136
 30
0.0
 10
3.135507802287477
 20
-133.3155116896775
 30
0.0
  0
SPLINE
  5
1C4
330
F2
100
AcDbEntity
  8
レイヤー_1
 62
   250
100
AcDbSpline
210
0.0
220
0.0
230
1.0
 70
     8
 71
     3
 72
     8
 73
     4
 74
     0
 42
0.000000001
 43
0.00000001
 40
1.0
 40
1.0
 40
1.0
 40
1.0
 40
2.0
 40
2.0
 40
2.0
 40
2.0
 10
3.135507802287477
 20
-133.3155116896775
 30
0.0
 10
2.368629547079095
 20
-134.5881299622469
 30
0.0
 10
1.314430328329095
 20
-135.3832580004414
 30
0.0
 10
-0.6368717550042085
 20
-136.1639166375942
 30
0.0
  0
SPLINE
  5
1C5
330
F2
100
AcDbEntity
  8
レイヤー_1
 62
   250
100
AcDbSpline
210
0.0
220
0.0
230
1.0
 70
     8
 71
     3
 72
     8
 73
     4
 74
     0
 42
0.000000001
 43
0.00000001
 40
2.0
 40
2.0
 40
2.0
 40
2.0
 40
3.0
 40
3.0
 40
3.0
 40
3.0
 10
-0.6368717550042085
 20
-136.1639166375942
 30
0.0
 10
-1.013765201184768
 20
-135.4121968025247
 30
0.0
 10
-1.201867414726408
 20
-135.1517475837747
 30
0.0
 10
-1.822673621323645
 20
-134.5598801792608
 30
0.0
  0
SPLINE
  5
1C6
330
F2
100
AcDbEntity
  8
レイヤー_1
 62
   250
100
AcDbSpline
210
0.0
220
0.0
230
1.0
 70
     8
 71
     3
 72
     8
 73
     4
 74
     0
 42
0.000000001
 43
0.00000001
 40
3.0
 40
3.0
 40
3.0
 40
3.0
 40
4.0
 40
4.0
 40
4.0
 40
4.0
 10
-1.822673621323645
 20
-134.5598801792608
 30
0.0
 10
-0.1035709737542021
 20
-134.0245123407191
 30
0.0
 10
0.9967925245097007
 20
-133.2576340855108
 30
0.0
 10
1.603818349162466
 20
-132.1593376445386
 30
0.0
  0
SPLINE
  5
1C7
330
F2
100
AcDbEntity
  8
レイヤー_1
 62
   250
100
AcDbSpline
210
0.0
220
0.0
230
1.0
 70
     8
 71
     3
 72
     8
 73
     4
 74
     0
 42
0.000000001
 43
0.00000001
 40
4.0
 40
4.0
 40
4.0
 40
4.0
 40
5.0
 40
5.0
 40
5.0
 40
5.0
 10
1.603818349162466
 20
-132.1593376445386
 30
0.0
 10
1.979333757148581
 20
-131.4944342157192
 30
0.0
 10
2.196374772773581
 20
-130.5842399882886
 30
0.0
 10
2.239093956801341
 20
-129.4273769240525
 30
0.0
  0
SPLINE
  5
1C8
330
F2
100
AcDbEntity
  8
レイヤー_1
 62
   250
100
AcDbSpline
210
0.0
220
0.0
230
1.0
 70
     8
 71
     3
 72
     8
 73
     4
 74
     0
 42
0.000000001
 43
0.00000001
 40
6.0
 40
6.0
 40
6.0
 40
6.0
 40
7.0
 40
7.0
 40
7.0
 40
7.0
 10
-1.273525400837528
 20
-129.4273769240525
 30
0.0
 10
-2.256066633476408
 20
-129.4273769240525
 30
0.0
 10
-2.589551876531985
 20
-129.4418463250942
 30
0.0
 10
-3.110450314031965
 20
-129.4997239292608
 30
0.0
  0
SPLINE
  5
1C9
330
F2
100
AcDbEntity
  8
レイヤー_1
 62
   250
100
AcDbSpline
210
0.0
220
0.0
230
1.0
 70
     8
 71
     3
 72
     8
 73
     4
 74
     0
 42
0.000000001
 43
0.00000001
 40
8.0
 40
8.0
 40
8.0
 40
8.0
 40
9.0
 40
9.0
 40
9.0
 40
9.0
 10
-3.110450314031965
 20
-127.7785542243997
 30
0.0
 10
-2.559924055351416
 20
-127.8660596497469
 30
0.0
 10
-2.242286251531965
 20
-127.8805290507886
 30
0.0
 10
-1.245275617851419
 20
-127.8805290507886
 30
0.0
  0
SPLINE
  5
1CA
330
F2
100
AcDbEntity
  8
レイヤー_1
 62
   250
100
AcDbSpline
210
0.0
220
0.0
230
1.0
 70
     8
 71
     3
 72
     8
 73
     4
 74
     0
 42
0.000000001
 43
0.00000001
 40
10.0
 40
10.0
 40
10.0
 40
10.0
 40
11.0
 40
11.0
 40
11.0
 40
11.0
 10
7.212433800551352
 20
-127.8805290507886
 30
0.0
 10
8.194975033190232
 20
-127.8805290507886
 30
0.0
 10
8.52846027624581
 20
-127.8660596497469
 30
0.0
 10
9.077608496731912
 20
-127.7785542243997
 30
0.0
  0
SPLINE
  5
1CB
330
F2
100
AcDbEntity
  8
レイヤー_1
 62
   250
100
AcDbSpline
210
0.0
220
0.0
230
1.0
 70
     8
 71
     3
 72
     8
 73
     4
 74
     0
 42
0.000000001
 43
0.00000001
 40
12.0
 40
12.0
 40
12.0
 40
12.0
 40
13.0
 40
13.0
 40
13.0
 40
13.0
 10
9.077608496731912
 20
-129.4997239292608
 30
0.0
 10
8.556710059231918
 20
-129.4418463250942
 30
0.0
 10
8.224602854370787
 20
-129.4273769240525
 30
0.0
 10
7.240683583537489
 20
-129.4273769240525
 30
0.0
  0
SPLINE
  5
1CC
330
F2
100
AcDbEntity
  8
レイヤー_1
 62
   250
100
AcDbSpline
210
0.0
220
0.0
230
1.0
 70
     8
 71
     3
 72
     8
 73
     4
 74
     0
 42
0.000000001
 43
0.00000001
 40
0.0
 40
0.0
 40
0.0
 40
0.0
 40
1.0
 40
1.0
 40
1.0
 40
1.0
 10
-11.82791993208753
 20
-135.484543807733
 30
0.0
 10
-11.90026693729588
 20
-135.022211993497
 30
0.0
 10
-12.13177735396252
 20
-134.3421501445386
 30
0.0
 10
-12.46319553972641
 20
-133.5332417243997
 30
0.0
  0
SPLINE
  5
1CD
330
F2
100
AcDbEntity
  8
レイヤー_1
 62
   250
100
AcDbSpline
210
0.0
220
0.0
230
1.0
 70
     8
 71
     3
 72
     8
 73
     4
 74
     0
 42
0.000000001
 43
0.00000001
 40
2.0
 40
2.0
 40
2.0
 40
2.0
 40
3.0
 40
3.0
 40
3.0
 40
3.0
 10
-14.54541125153197
 20
-128.5743712816914
 30
0.0
 10
-14.81964085222642
 20
-127.9232482348164
 30
0.0
 10
-14.9491764425042
 20
-127.5332634257886
 30
0.0
 10
-15.28266168555977
 20
-126.3626199796081
 30
0.0
  0
SPLINE
  5
1CE
330
F2
100
AcDbEntity
  8
レイヤー_1
 62
   250
100
AcDbSpline
210
0.0
220
0.0
230
1.0
 70
     8
 71
     3
 72
     8
 73
     4
 74
     0
 42
0.000000001
 43
0.00000001
 40
3.0
 40
3.0
 40
3.0
 40
3.0
 40
4.0
 40
4.0
 40
4.0
 40
4.0
 10
-15.28266168555977
 20
-126.3626199796081
 30
0.0
 10
-15.2247840813931
 20
-127.1288092157192
 30
0.0
 10
-15.16690647722642
 20
-128.3139220629414
 30
0.0
 10
-15.16690647722642
 20
-128.6315598667608
 30
0.0
  0
SPLINE
  5
1CF
330
F2
100
AcDbEntity
  8
レイヤー_1
 62
   250
100
AcDbSpline
210
0.0
220
0.0
230
1.0
 70
     8
 71
     3
 72
     8
 73
     4
 74
     0
 42
0.000000001
 43
0.00000001
 40
5.0
 40
5.0
 40
5.0
 40
5.0
 40
6.0
 40
6.0
 40
6.0
 40
6.0
 10
-15.16690647722642
 20
-133.3733892938442
 30
0.0
 10
-15.16690647722642
 20
-134.3717779657191
 30
0.0
 10
-15.13865669424031
 20
-134.9209261862052
 30
0.0
 10
-15.05115126889309
 20
-135.484543807733
 30
0.0
  0
SPLINE
  5
1D0
330
F2
100
AcDbEntity
  8
レイヤー_1
 62
   250
100
AcDbSpline
210
0.0
220
0.0
230
1.0
 70
     8
 71
     3
 72
     8
 73
     4
 74
     0
 42
0.000000001
 43
0.00000001
 40
7.0
 40
7.0
 40
7.0
 40
7.0
 40
8.0
 40
8.0
 40
8.0
 40
8.0
 10
-17.07548937653196
 20
-135.484543807733
 30
0.0
 10
-16.98798395118477
 20
-134.9064567851636
 30
0.0
 10
-16.95973416819865
 20
-134.3421501445386
 30
0.0
 10
-16.95973416819865
 20
-133.3733892938442
 30
0.0
  0
SPLINE
  5
1D1
330
F2
100
AcDbEntity
  8
レイヤー_1
 62
   250
100
AcDbSpline
210
0.0
220
0.0
230
1.0
 70
     8
 71
     3
 72
     8
 73
     4
 74
     0
 42
0.000000001
 43
0.00000001
 40
9.0
 40
9.0
 40
9.0
 40
9.0
 40
10.0
 40
10.0
 40
10.0
 40
10.0
 10
-16.95973416819865
 20
-126.1166401618997
 30
0.0
 10
-16.95973416819865
 20
-125.1768181132886
 30
0.0
 10
-16.98798395118477
 20
-124.5697922886358
 30
0.0
 10
-17.07548937653196
 20
-123.9772358650247
 30
0.0
  0
SPLINE
  5
1D2
330
F2
100
AcDbEntity
  8
レイヤー_1
 62
   250
100
AcDbSpline
210
0.0
220
0.0
230
1.0
 70
     8
 71
     3
 72
     8
 73
     4
 74
     0
 42
0.000000001
 43
0.00000001
 40
11.0
 40
11.0
 40
11.0
 40
11.0
 40
12.0
 40
12.0
 40
12.0
 40
12.0
 10
-14.42965604319865
 20
-123.9772358650247
 30
0.0
 10
-14.32837023590698
 20
-124.4829758823858
 30
0.0
 10
-14.14026802236531
 20
-125.0900017070386
 30
0.0
 10
-13.8949772237542
 20
-125.6977165507886
 30
0.0
  0
SPLINE
  5
1D3
330
F2
100
AcDbEntity
  8
レイヤー_1
 62
   250
100
AcDbSpline
210
0.0
220
0.0
230
1.0
 70
     8
 71
     3
 72
     8
 73
     4
 74
     0
 42
0.000000001
 43
0.00000001
 40
14.0
 40
14.0
 40
14.0
 40
14.0
 40
15.0
 40
15.0
 40
15.0
 40
15.0
 10
-8.040381954656965
 20
-125.6977165507886
 30
0.0
 10
-7.750993933823651
 20
-124.9894049188442
 30
0.0
 10
-7.620769324448645
 20
-124.5263840855108
 30
0.0
 10
-7.519483517156985
 20
-123.9772358650247
 30
0.0
  0
SPLINE
  5
1D4
330
F2
100
AcDbEntity
  8
レイヤー_1
 62
   250
100
AcDbSpline
210
0.0
220
0.0
230
1.0
 70
     8
 71
     3
 72
     8
 73
     4
 74
     0
 42
0.000000001
 43
0.00000001
 40
16.0
 40
16.0
 40
16.0
 40
16.0
 40
17.0
 40
17.0
 40
17.0
 40
17.0
 10
-4.859180782781962
 20
-123.9772358650247
 30
0.0
 10
-4.945308169934776
 20
-124.6710780959275
 30
0.0
 10
-4.975625010212525
 20
-125.1478793112052
 30
0.0
 10
-4.975625010212525
 20
-126.1166401618997
 30
0.0
  0
SPLINE
  5
1D5
330
F2
100
AcDbEntity
  8
レイヤー_1
 62
   250
100
AcDbSpline
210
0.0
220
0.0
230
1.0
 70
     8
 71
     3
 72
     8
 73
     4
 74
     0
 42
0.000000001
 43
0.00000001
 40
18.0
 40
18.0
 40
18.0
 40
18.0
 40
19.0
 40
19.0
 40
19.0
 40
19.0
 10
-4.975625010212525
 20
-133.3733892938442
 30
0.0
 10
-4.975625010212525
 20
-134.4289665507886
 30
0.0
 10
-4.945308169934776
 20
-134.9491759691914
 30
0.0
 10
-4.859180782781962
 20
-135.484543807733
 30
0.0
  0
SPLINE
  5
1D6
330
F2
100
AcDbEntity
  8
レイヤー_1
 62
   250
100
AcDbSpline
210
0.0
220
0.0
230
1.0
 70
     8
 71
     3
 72
     8
 73
     4
 74
     0
 42
0.000000001
 43
0.00000001
 40
20.0
 40
20.0
 40
20.0
 40
20.0
 40
21.0
 40
21.0
 40
21.0
 40
21.0
 10
-6.884207909518096
 20
-135.484543807733
 30
0.0
 10
-6.796702484170879
 20
-134.8912983650247
 30
0.0
 10
-6.768452701184771
 20
-134.3717779657191
 30
0.0
 10
-6.768452701184771
 20
-133.3733892938442
 30
0.0
  0
SPLINE
  5
1D7
330
F2
100
AcDbEntity
  8
レイヤー_1
 62
   250
100
AcDbSpline
210
0.0
220
0.0
230
1.0
 70
     8
 71
     3
 72
     8
 73
     4
 74
     0
 42
0.000000001
 43
0.00000001
 40
22.0
 40
22.0
 40
22.0
 40
22.0
 40
23.0
 40
23.0
 40
23.0
 40
23.0
 10
-6.768452701184771
 20
-128.5743712816914
 30
0.0
 10
-6.710575097018094
 20
-127.3162224101636
 30
0.0
 10
-6.666477874795902
 20
-126.5789719761358
 30
0.0
 10
-6.652697492851416
 20
-126.3626199796081
 30
0.0
  0
SPLINE
  5
1D8
330
F2
100
AcDbEntity
  8
レイヤー_1
 62
   250
100
AcDbSpline
210
0.0
220
0.0
230
1.0
 70
     8
 71
     3
 72
     8
 73
     4
 74
     0
 42
0.000000001
 43
0.00000001
 40
23.0
 40
23.0
 40
23.0
 40
23.0
 40
24.0
 40
24.0
 40
24.0
 40
24.0
 10
-6.652697492851416
 20
-126.3626199796081
 30
0.0
 10
-6.840110687295848
 20
-127.1432786167608
 30
0.0
 10
-7.114340287990331
 20
-127.9521870368997
 30
0.0
 10
-7.317600921670903
 20
-128.473774493497
 30
0.0
  0
SPLINE
  5
1D9
330
F2
100
AcDbEntity
  8
レイヤー_1
 62
   250
100
AcDbSpline
210
0.0
220
0.0
230
1.0
 70
     8
 71
     3
 72
     8
 73
     4
 74
     0
 42
0.000000001
 43
0.00000001
 40
25.0
 40
25.0
 40
25.0
 40
25.0
 40
26.0
 40
26.0
 40
26.0
 40
26.0
 10
-9.485944020629205
 20
-133.5614915073858
 30
0.0
 10
-9.775332041462521
 20
-134.240864337247
 30
0.0
 10
-10.03509224111531
 20
-135.0511507955803
 30
0.0
 10
-10.1212196282681
 20
-135.484543807733
 30
0.0
  0
SPLINE
  5
1DA
330
F2
100
AcDbEntity
  8
レイヤー_1
 62
   250
100
AcDbSpline
210
0.0
220
0.0
230
1.0
 70
     8
 71
     3
 72
     8
 73
     4
 74
     0
 42
0.000000001
 43
0.00000001
 40
0.0
 40
0.0
 40
0.0
 40
0.0
 40
1.0
 40
1.0
 40
1.0
 40
1.0
 10
-19.11291884701809
 20
-123.9772358650247
 30
0.0
 10
-19.20042427236531
 20
-124.5697922886358
 30
0.0
 10
-19.22867405535142
 20
-124.9453076966219
 30
0.0
 10
-19.22867405535142
 20
-125.841721542108
 30
0.0
  0
SPLINE
  5
1DB
330
F2
100
AcDbEntity
  8
レイヤー_1
 62
   250
100
AcDbSpline
210
0.0
220
0.0
230
1.0
 70
     8
 71
     3
 72
     8
 73
     4
 74
     0
 42
0.000000001
 43
0.00000001
 40
2.0
 40
2.0
 40
2.0
 40
2.0
 40
3.0
 40
3.0
 40
3.0
 40
3.0
 10
-19.22867405535142
 20
-132.318501055997
 30
0.0
 10
-19.22867405535142
 20
-133.3299810907192
 30
0.0
 10
-19.5035926751431
 20
-134.1402675490525
 30
0.0
 10
-20.0093326925042
 20
-134.6894157695386
 30
0.0
  0
SPLINE
  5
1DC
330
F2
100
AcDbEntity
  8
レイヤー_1
 62
   250
100
AcDbSpline
210
0.0
220
0.0
230
1.0
 70
     8
 71
     3
 72
     8
 73
     4
 74
     0
 42
0.000000001
 43
0.00000001
 40
3.0
 40
3.0
 40
3.0
 40
3.0
 40
4.0
 40
4.0
 40
4.0
 40
4.0
 10
-20.0093326925042
 20
-134.6894157695386
 30
0.0
 10
-20.63013889910141
 20
-135.3543191983581
 30
0.0
 10
-21.59889974979585
 20
-135.7015848233581
 30
0.0
 10
-22.81432943729588
 20
-135.7015848233581
 30
0.0
  0
SPLINE
  5
1DD
330
F2
100
AcDbEntity
  8
レイヤー_1
 62
   250
100
AcDbSpline
210
0.0
220
0.0
230
1.0
 70
     8
 71
     3
 72
     8
 73
     4
 74
     0
 42
0.000000001
 43
0.00000001
 40
4.0
 40
4.0
 40
4.0
 40
4.0
 40
5.0
 40
5.0
 40
5.0
 40
5.0
 10
-22.81432943729588
 20
-135.7015848233581
 30
0.0
 10
-24.1145084737542
 20
-135.7015848233581
 30
0.0
 10
-25.05501954146253
 20
-135.3543191983581
 30
0.0
 10
-25.74817275326809
 20
-134.6177577834275
 30
0.0
  0
SPLINE
  5
1DE
330
F2
100
AcDbEntity
  8
レイヤー_1
 62
   250
100
AcDbSpline
210
0.0
220
0.0
230
1.0
 70
     8
 71
     3
 72
     8
 73
     4
 74
     0
 42
0.000000001
 43
0.00000001
 40
5.0
 40
5.0
 40
5.0
 40
5.0
 40
6.0
 40
6.0
 40
6.0
 40
6.0
 10
-25.74817275326809
 20
-134.6177577834275
 30
0.0
 10
-26.08096897722642
 20
-134.2560227573859
 30
0.0
 10
-26.25460178972641
 20
-133.9521653355108
 30
0.0
 10
-26.57223959354585
 20
-133.2438537035664
 30
0.0
  0
SPLINE
  5
1DF
330
F2
100
AcDbEntity
  8
レイヤー_1
 62
   250
100
AcDbSpline
210
0.0
220
0.0
230
1.0
 70
     8
 71
     3
 72
     8
 73
     4
 74
     0
 42
0.000000001
 43
0.00000001
 40
7.0
 40
7.0
 40
7.0
 40
7.0
 40
8.0
 40
8.0
 40
8.0
 40
8.0
 10
-24.66365669424033
 20
-132.5500114726636
 30
0.0
 10
-24.44799371680978
 20
-133.2149149014831
 30
0.0
 10
-24.2447330831292
 20
-133.5036139032191
 30
0.0
 10
-23.88299805708752
 20
-133.7351243198858
 30
0.0
  0
SPLINE
  5
1E0
330
F2
100
AcDbEntity
  8
レイヤー_1
 62
   250
100
AcDbSpline
210
0.0
220
0.0
230
1.0
 70
     8
 71
     3
 72
     8
 73
     4
 74
     0
 42
0.000000001
 43
0.00000001
 40
8.0
 40
8.0
 40
8.0
 40
8.0
 40
9.0
 40
9.0
 40
9.0
 40
9.0
 10
-23.88299805708752
 20
-133.7351243198858
 30
0.0
 10
-23.62323785743477
 20
-133.9087571323858
 30
0.0
 10
-23.18984484528197
 20
-134.0100429396775
 30
0.0
 10
-22.79848199805977
 20
-134.0100429396775
 30
0.0
  0
SPLINE
  5
1E1
330
F2
100
AcDbEntity
  8
レイヤー_1
 62
   250
100
AcDbSpline
210
0.0
220
0.0
230
1.0
 70
     8
 71
     3
 72
     8
 73
     4
 74
     0
 42
0.000000001
 43
0.00000001
 40
9.0
 40
9.0
 40
9.0
 40
9.0
 40
10.0
 40
10.0
 40
10.0
 40
10.0
 10
-22.79848199805977
 20
-134.0100429396775
 30
0.0
 10
-22.27896159875421
 20
-134.0100429396775
 30
0.0
 10
-21.80216038347642
 20
-133.8364101271775
 30
0.0
 10
-21.54240018382365
 20
-133.5470221063442
 30
0.0
  0
SPLINE
  5
1E2
330
F2
100
AcDbEntity
  8
レイヤー_1
 62
   250
100
AcDbSpline
210
0.0
220
0.0
230
1.0
 70
     8
 71
     3
 72
     8
 73
     4
 74
     0
 42
0.000000001
 43
0.00000001
 40
10.0
 40
10.0
 40
10.0
 40
10.0
 40
11.0
 40
11.0
 40
11.0
 40
11.0
 10
-21.54240018382365
 20
-133.5470221063442
 30
0.0
 10
-21.31088976715697
 20
-133.2872619066914
 30
0.0
 10
-21.19513455882365
 20
-132.8683382955803
 30
0.0
 10
-21.19513455882365
 20
-132.2895622539136
 30
0.0
  0
SPLINE
  5
1E3
330
F2
100
AcDbEntity
  8
レイヤー_1
 62
   250
100
AcDbSpline
210
0.0
220
0.0
230
1.0
 70
     8
 71
     3
 72
     8
 73
     4
 74
     0
 42
0.000000001
 43
0.00000001
 40
12.0
 40
12.0
 40
12.0
 40
12.0
 40
13.0
 40
13.0
 40
13.0
 40
13.0
 10
-21.19513455882365
 20
-125.841721542108
 30
0.0
 10
-21.19513455882365
 20
-124.9749355178025
 30
0.0
 10
-21.22338434180978
 20
-124.5560119066914
 30
0.0
 10
-21.31088976715697
 20
-123.9772358650247
 30
0.0
  0
SPLINE
  5
1E4
330
F2
100
AcDbEntity
  8
レイヤー_1
 62
   250
100
AcDbSpline
210
0.0
220
0.0
230
1.0
 70
     8
 71
     3
 72
     8
 73
     4
 74
     0
 42
0.000000001
 43
0.00000001
 40
0.0
 40
0.0
 40
0.0
 40
0.0
 40
1.0
 40
1.0
 40
1.0
 40
1.0
 10
-29.20360352583753
 20
-133.6048997105108
 30
0.0
 10
-29.20360352583753
 20
-134.3862473667608
 30
0.0
 10
-29.17397570465699
 20
-134.8912983650247
 30
0.0
 10
-29.0878483175042
 20
-135.484543807733
 30
0.0
  0
SPLINE
  5
1E5
330
F2
100
AcDbEntity
  8
レイヤー_1
 62
   250
100
AcDbSpline
210
0.0
220
0.0
230
1.0
 70
     8
 71
     3
 72
     8
 73
     4
 74
     0
 42
0.000000001
 43
0.00000001
 40
2.0
 40
2.0
 40
2.0
 40
2.0
 40
3.0
 40
3.0
 40
3.0
 40
3.0
 10
-31.27066081750421
 20
-135.484543807733
 30
0.0
 10
-31.18453343035142
 20
-134.8775179830803
 30
0.0
 10
-31.15490560917089
 20
-134.3862473667608
 30
0.0
 10
-31.15490560917089
 20
-133.6048997105108
 30
0.0
  0
SPLINE
  5
1E6
330
F2
100
AcDbEntity
  8
レイヤー_1
 62
   250
100
AcDbSpline
210
0.0
220
0.0
230
1.0
 70
     8
 71
     3
 72
     8
 73
     4
 74
     0
 42
0.000000001
 43
0.00000001
 40
5.0
 40
5.0
 40
5.0
 40
5.0
 40
6.0
 40
6.0
 40
6.0
 40
6.0
 10
-33.10689671160142
 20
-125.7121859518302
 30
0.0
 10
-33.95990235396253
 20
-125.7121859518302
 30
0.0
 10
-34.58139757965697
 20
-125.7404357348164
 30
0.0
 10
-35.08782661611531
 20
-125.8127827400247
 30
0.0
  0
SPLINE
  5
1E7
330
F2
100
AcDbEntity
  8
レイヤー_1
 62
   250
100
AcDbSpline
210
0.0
220
0.0
230
1.0
 70
     8
 71
     3
 72
     8
 73
     4
 74
     0
 42
0.000000001
 43
0.00000001
 40
7.0
 40
7.0
 40
7.0
 40
7.0
 40
8.0
 40
8.0
 40
8.0
 40
8.0
 10
-35.08782661611531
 20
-123.875950057733
 30
0.0
 10
-34.56692817861533
 20
-123.9482970629414
 30
0.0
 10
-33.94543295292089
 20
-123.9772358650247
 30
0.0
 10
-33.12136611264309
 20
-123.9772358650247
 30
0.0
  0
SPLINE
  5
1E8
330
F2
100
AcDbEntity
  8
レイヤー_1
 62
   250
100
AcDbSpline
210
0.0
220
0.0
230
1.0
 70
     8
 71
     3
 72
     8
 73
     4
 74
     0
 42
0.000000001
 43
0.00000001
 40
9.0
 40
9.0
 40
9.0
 40
9.0
 40
10.0
 40
10.0
 40
10.0
 40
10.0
 10
-27.39699545292088
 20
-123.9772358650247
 30
0.0
 10
-26.35657661611531
 20
-123.9772358650247
 30
0.0
 10
-25.82120877757364
 20
-123.9482970629414
 30
0.0
 10
-25.27206055708753
 20
-123.875950057733
 30
0.0
  0
SPLINE
  5
1E9
330
F2
100
AcDbEntity
  8
レイヤー_1
 62
   250
100
AcDbSpline
210
0.0
220
0.0
230
1.0
 70
     8
 71
     3
 72
     8
 73
     4
 74
     0
 42
0.000000001
 43
0.00000001
 40
11.0
 40
11.0
 40
11.0
 40
11.0
 40
12.0
 40
12.0
 40
12.0
 40
12.0
 10
-25.27206055708753
 20
-125.8127827400247
 30
0.0
 10
-25.8074283956292
 20
-125.7404357348164
 30
0.0
 10
-26.35657661611531
 20
-125.7121859518302
 30
0.0
 10
-27.39699545292088
 20
-125.7121859518302
 30
0.0
  0
SPLINE
  5
1EA
330
F2
100
AcDbEntity
  8
レイヤー_1
 62
   250
100
AcDbSpline
210
0.0
220
0.0
230
1.0
 70
     8
 71
     3
 72
     8
 73
     4
 74
     0
 42
0.000000001
 43
0.00000001
 40
1.0
 40
1.0
 40
1.0
 40
1.0
 40
2.0
 40
2.0
 40
2.0
 40
2.0
 10
-37.56002713694865
 20
-134.3573085646775
 30
0.0
 10
-36.83724610396253
 20
-134.3573085646775
 30
0.0
 10
-36.35975586958753
 20
-134.3283697625942
 30
0.0
 10
-35.91120443729589
 20
-134.2704921584275
 30
0.0
  0
SPLINE
  5
1EB
330
F2
100
AcDbEntity
  8
レイヤー_1
 62
   250
100
AcDbSpline
210
0.0
220
0.0
230
1.0
 70
     8
 71
     3
 72
     8
 73
     4
 74
     0
 42
0.000000001
 43
0.00000001
 40
3.0
 40
3.0
 40
3.0
 40
3.0
 40
4.0
 40
4.0
 40
4.0
 40
4.0
 10
-35.91120443729589
 20
-136.0192226271775
 30
0.0
 10
-36.41763347375421
 20
-135.9475646410664
 30
0.0
 10
-36.98125109528197
 20
-135.9179368198858
 30
0.0
 10
-37.56002713694865
 20
-135.9179368198858
 30
0.0
  0
SPLINE
  5
1EC
330
F2
100
AcDbEntity
  8
レイヤー_1
 62
   250
100
AcDbSpline
210
0.0
220
0.0
230
1.0
 70
     8
 71
     3
 72
     8
 73
     4
 74
     0
 42
0.000000001
 43
0.00000001
 40
5.0
 40
5.0
 40
5.0
 40
5.0
 40
6.0
 40
6.0
 40
6.0
 40
6.0
 10
-42.5037391595181
 20
-135.9179368198858
 30
0.0
 10
-43.08113716299031
 20
-135.9179368198858
 30
0.0
 10
-43.63028538347643
 20
-135.9475646410664
 30
0.0
 10
-44.13740343903199
 20
-136.0192226271775
 30
0.0
  0
SPLINE
  5
1ED
330
F2
100
AcDbEntity
  8
レイヤー_1
 62
   250
100
AcDbSpline
210
0.0
220
0.0
230
1.0
 70
     8
 71
     3
 72
     8
 73
     4
 74
     0
 42
0.000000001
 43
0.00000001
 40
7.0
 40
7.0
 40
7.0
 40
7.0
 40
8.0
 40
8.0
 40
8.0
 40
8.0
 10
-44.13740343903199
 20
-134.2704921584275
 30
0.0
 10
-43.67438260569865
 20
-134.3283697625942
 30
0.0
 10
-43.16864258833754
 20
-134.3573085646775
 30
0.0
 10
-42.47411133833755
 20
-134.3573085646775
 30
0.0
  0
SPLINE
  5
1EE
330
F2
100
AcDbEntity
  8
レイヤー_1
 62
   250
100
AcDbSpline
210
0.0
220
0.0
230
1.0
 70
     8
 71
     3
 72
     8
 73
     4
 74
     0
 42
0.000000001
 43
0.00000001
 40
11.0
 40
11.0
 40
11.0
 40
11.0
 40
12.0
 40
12.0
 40
12.0
 40
12.0
 10
-41.98284072201808
 20
-128.7045958910664
 30
0.0
 10
-42.47411133833755
 20
-128.7045958910664
 30
0.0
 10
-42.93713217167087
 20
-128.7335346931497
 30
0.0
 10
-43.40015300500419
 20
-128.7769428962747
 30
0.0
  0
SPLINE
  5
1EF
330
F2
100
AcDbEntity
  8
レイヤー_1
 62
   250
100
AcDbSpline
210
0.0
220
0.0
230
1.0
 70
     8
 71
     3
 72
     8
 73
     4
 74
     0
 42
0.000000001
 43
0.00000001
 40
13.0
 40
13.0
 40
13.0
 40
13.0
 40
14.0
 40
14.0
 40
14.0
 40
14.0
 10
-43.40015300500419
 20
-127.1432786167608
 30
0.0
 10
-42.98122939389309
 20
-127.2004672018302
 30
0.0
 10
-42.60433594771253
 20
-127.2156256219692
 30
0.0
 10
-41.98284072201808
 20
-127.2156256219692
 30
0.0
  0
SPLINE
  5
1F0
330
F2
100
AcDbEntity
  8
レイヤー_1
 62
   250
100
AcDbSpline
210
0.0
220
0.0
230
1.0
 70
     8
 71
     3
 72
     8
 73
     4
 74
     0
 42
0.000000001
 43
0.00000001
 40
16.0
 40
16.0
 40
16.0
 40
16.0
 40
17.0
 40
17.0
 40
17.0
 40
17.0
 10
-40.89901368208753
 20
-124.6710780959275
 30
0.0
 10
-40.89901368208753
 20
-124.0785216723164
 30
0.0
 10
-40.92726346507363
 20
-123.7312560473164
 30
0.0
 10
-41.00029948937921
 20
-123.1683274448858
 30
0.0
  0
SPLINE
  5
1F1
330
F2
100
AcDbEntity
  8
レイヤー_1
 62
   250
100
AcDbSpline
210
0.0
220
0.0
230
1.0
 70
     8
 71
     3
 72
     8
 73
     4
 74
     0
 42
0.000000001
 43
0.00000001
 40
18.0
 40
18.0
 40
18.0
 40
18.0
 40
19.0
 40
19.0
 40
19.0
 40
19.0
 10
-39.19300239736531
 20
-123.1683274448858
 30
0.0
 10
-39.2791297845181
 20
-123.745725448358
 30
0.0
 10
-39.29359918555978
 20
-124.0488938511358
 30
0.0
 10
-39.29359918555978
 20
-124.6710780959275
 30
0.0
  0
SPLINE
  5
1F2
330
F2
100
AcDbEntity
  8
レイヤー_1
 62
   250
100
AcDbSpline
210
0.0
220
0.0
230
1.0
 70
     8
 71
     3
 72
     8
 73
     4
 74
     0
 42
0.000000001
 43
0.00000001
 40
21.0
 40
21.0
 40
21.0
 40
21.0
 40
22.0
 40
22.0
 40
22.0
 40
22.0
 10
-37.76190973243477
 20
-127.2156256219692
 30
0.0
 10
-37.11078668555978
 20
-127.2156256219692
 30
0.0
 10
-36.74974067861533
 20
-127.2004672018302
 30
0.0
 10
-36.34459744944865
 20
-127.1432786167608
 30
0.0
  0
SPLINE
  5
1F3
330
F2
100
AcDbEntity
  8
レイヤー_1
 62
   250
100
AcDbSpline
210
0.0
220
0.0
230
1.0
 70
     8
 71
     3
 72
     8
 73
     4
 74
     0
 42
0.000000001
 43
0.00000001
 40
23.0
 40
23.0
 40
23.0
 40
23.0
 40
24.0
 40
24.0
 40
24.0
 40
24.0
 10
-36.34459744944865
 20
-128.7769428962747
 30
0.0
 10
-36.80761828278198
 20
-128.7335346931497
 30
0.0
 10
-37.25616971507363
 20
-128.7045958910664
 30
0.0
 10
-37.76190973243477
 20
-128.7045958910664
 30
0.0
  0
SPLINE
  5
1F4
330
F2
100
AcDbEntity
  8
レイヤー_1
 62
   250
100
AcDbSpline
210
0.0
220
0.0
230
1.0
 70
     8
 71
     3
 72
     8
 73
     4
 74
     0
 42
0.000000001
 43
0.00000001
 40
0.0
 40
0.0
 40
0.0
 40
0.0
 40
1.0
 40
1.0
 40
1.0
 40
1.0
 10
-45.42311307444864
 20
-135.0366813945386
 30
0.0
 10
-45.42311307444864
 20
-135.7160542243997
 30
0.0
 10
-45.4093326925042
 20
-136.0771002313442
 30
0.0
 10
-45.35145508833754
 20
-136.5104932434969
 30
0.0
  0
SPLINE
  5
1F5
330
F2
100
AcDbEntity
  8
レイヤー_1
 62
   250
100
AcDbSpline
210
0.0
220
0.0
230
1.0
 70
     8
 71
     3
 72
     8
 73
     4
 74
     0
 42
0.000000001
 43
0.00000001
 40
2.0
 40
2.0
 40
2.0
 40
2.0
 40
3.0
 40
3.0
 40
3.0
 40
3.0
 10
-47.10087457618476
 20
-136.5104932434969
 30
0.0
 10
-47.02852757097644
 20
-136.0771002313442
 30
0.0
 10
-47.01474718903197
 20
-135.6871154223164
 30
0.0
 10
-47.01474718903197
 20
-135.0070535733581
 30
0.0
  0
SPLINE
  5
1F6
330
F2
100
AcDbEntity
  8
レイヤー_1
 62
   250
100
AcDbSpline
210
0.0
220
0.0
230
1.0
 70
     8
 71
     3
 72
     8
 73
     4
 74
     0
 42
0.000000001
 43
0.00000001
 40
4.0
 40
4.0
 40
4.0
 40
4.0
 40
5.0
 40
5.0
 40
5.0
 40
5.0
 10
-47.01474718903197
 20
-131.3786790073858
 30
0.0
 10
-47.57767579146253
 20
-131.8988884257886
 30
0.0
 10
-47.88153321333754
 20
-132.1303988424552
 30
0.0
 10
-48.6180946282681
 20
-132.6072000577331
 30
0.0
  0
SPLINE
  5
1F7
330
F2
100
AcDbEntity
  8
レイヤー_1
 62
   250
100
AcDbSpline
210
0.0
220
0.0
230
1.0
 70
     8
 71
     3
 72
     8
 73
     4
 74
     0
 42
0.000000001
 43
0.00000001
 40
5.0
 40
5.0
 40
5.0
 40
5.0
 40
6.0
 40
6.0
 40
6.0
 40
6.0
 10
-48.6180946282681
 20
-132.6072000577331
 30
0.0
 10
-48.79172744076811
 20
-132.0580518372469
 30
0.0
 10
-49.05148764042085
 20
-131.5378424188442
 30
0.0
 10
-49.35534506229588
 20
-131.1044494066914
 30
0.0
  0
SPLINE
  5
1F8
330
F2
100
AcDbEntity
  8
レイヤー_1
 62
   250
100
AcDbSpline
210
0.0
220
0.0
230
1.0
 70
     8
 71
     3
 72
     8
 73
     4
 74
     0
 42
0.000000001
 43
0.00000001
 40
6.0
 40
6.0
 40
6.0
 40
6.0
 40
7.0
 40
7.0
 40
7.0
 40
7.0
 10
-49.35534506229588
 20
-131.1044494066914
 30
0.0
 10
-48.34455404667087
 20
-130.5263623841219
 30
0.0
 10
-47.65002279667087
 20
-129.9772141636358
 30
0.0
 10
-46.86936415951808
 20
-129.1524583042608
 30
0.0
  0
SPLINE
  5
1F9
330
F2
100
AcDbEntity
  8
レイヤー_1
 62
   250
100
AcDbSpline
210
0.0
220
0.0
230
1.0
 70
     8
 71
     3
 72
     8
 73
     4
 74
     0
 42
0.000000001
 43
0.00000001
 40
7.0
 40
7.0
 40
7.0
 40
7.0
 40
8.0
 40
8.0
 40
8.0
 40
8.0
 10
-46.86936415951808
 20
-129.1524583042608
 30
0.0
 10
-46.189991329657
 20
-128.4434576532191
 30
0.0
 10
-45.77037869944865
 20
-127.8515902487052
 30
0.0
 10
-45.29357748417088
 20
-126.9262376011358
 30
0.0
  0
SPLINE
  5
1FA
330
F2
100
AcDbEntity
  8
レイヤー_1
 62
   250
100
AcDbSpline
210
0.0
220
0.0
230
1.0
 70
     8
 71
     3
 72
     8
 73
     4
 74
     0
 42
0.000000001
 43
0.00000001
 40
9.0
 40
9.0
 40
9.0
 40
9.0
 40
10.0
 40
10.0
 40
10.0
 40
10.0
 10
-47.65002279667087
 20
-126.9262376011358
 30
0.0
 10
-48.17092123417088
 20
-126.9262376011358
 30
0.0
 10
-48.47408963694867
 20
-126.9400179830803
 30
0.0
 10
-48.86407444597643
 20
-126.9841152053025
 30
0.0
  0
SPLINE
  5
1FB
330
F2
100
AcDbEntity
  8
レイヤー_1
 62
   250
100
AcDbSpline
210
0.0
220
0.0
230
1.0
 70
     8
 71
     3
 72
     8
 73
     4
 74
     0
 42
0.000000001
 43
0.00000001
 40
11.0
 40
11.0
 40
11.0
 40
11.0
 40
12.0
 40
12.0
 40
12.0
 40
12.0
 10
-48.86407444597643
 20
-125.3787007087747
 30
0.0
 10
-48.50233941993475
 20
-125.4227979309969
 30
0.0
 10
-48.19917101715699
 20
-125.4365783129414
 30
0.0
 10
-47.72168078278199
 20
-125.4365783129414
 30
0.0
  0
SPLINE
  5
1FC
330
F2
100
AcDbEntity
  8
レイヤー_1
 62
   250
100
AcDbSpline
210
0.0
220
0.0
230
1.0
 70
     8
 71
     3
 72
     8
 73
     4
 74
     0
 42
0.000000001
 43
0.00000001
 40
14.0
 40
14.0
 40
14.0
 40
14.0
 40
15.0
 40
15.0
 40
15.0
 40
15.0
 10
-46.99889974979587
 20
-124.2225266636358
 30
0.0
 10
-46.99889974979587
 20
-123.8470112556497
 30
0.0
 10
-47.02852757097644
 20
-123.4570264466219
 30
0.0
 10
-47.08640517514311
 20
-123.1242302226636
 30
0.0
  0
SPLINE
  5
1FD
330
F2
100
AcDbEntity
  8
レイヤー_1
 62
   250
100
AcDbSpline
210
0.0
220
0.0
230
1.0
 70
     8
 71
     3
 72
     8
 73
     4
 74
     0
 42
0.000000001
 43
0.00000001
 40
16.0
 40
16.0
 40
16.0
 40
16.0
 40
17.0
 40
17.0
 40
17.0
 40
17.0
 10
-45.33698568729588
 20
-123.1242302226636
 30
0.0
 10
-45.39486329146253
 20
-123.4570264466219
 30
0.0
 10
-45.42311307444864
 20
-123.7753532695386
 30
0.0
 10
-45.42311307444864
 20
-124.2521544848164
 30
0.0
  0
SPLINE
  5
1FE
330
F2
100
AcDbEntity
  8
レイヤー_1
 62
   250
100
AcDbSpline
210
0.0
220
0.0
230
1.0
 70
     8
 71
     3
 72
     8
 73
     4
 74
     0
 42
0.000000001
 43
0.00000001
 40
19.0
 40
19.0
 40
19.0
 40
19.0
 40
20.0
 40
20.0
 40
20.0
 40
20.0
 10
-44.83055665083754
 20
-125.4365783129414
 30
0.0
 10
-44.38269423764311
 20
-125.4365783129414
 30
0.0
 10
-44.17943360396256
 20
-125.4227979309969
 30
0.0
 10
-43.9920204095181
 20
-125.3938591289136
 30
0.0
  0
SPLINE
  5
1FF
330
F2
100
AcDbEntity
  8
レイヤー_1
 62
   250
100
AcDbSpline
210
0.0
220
0.0
230
1.0
 70
     8
 71
     3
 72
     8
 73
     4
 74
     0
 42
0.000000001
 43
0.00000001
 40
21.0
 40
21.0
 40
21.0
 40
21.0
 40
22.0
 40
22.0
 40
22.0
 40
22.0
 10
-43.29886719771253
 20
-126.1455789639831
 30
0.0
 10
-43.42840278799031
 20
-126.3626199796081
 30
0.0
 10
-43.51453017514311
 20
-126.5066249709275
 30
0.0
 10
-43.616505001532
 20
-126.7526047886358
 30
0.0
  0
SPLINE
  5
200
330
F2
100
AcDbEntity
  8
レイヤー_1
 62
   250
100
AcDbSpline
210
0.0
220
0.0
230
1.0
 70
     8
 71
     3
 72
     8
 73
     4
 74
     0
 42
0.000000001
 43
0.00000001
 40
22.0
 40
22.0
 40
22.0
 40
22.0
 40
23.0
 40
23.0
 40
23.0
 40
23.0
 10
-43.616505001532
 20
-126.7526047886358
 30
0.0
 10
-44.09330621680977
 20
-127.7937126445386
 30
0.0
 10
-44.36891385569864
 20
-128.2698248407192
 30
0.0
 10
-45.06206706750421
 20
-129.2248053094691
 30
0.0
  0
SPLINE
  5
201
330
F2
100
AcDbEntity
  8
レイヤー_1
 62
   250
100
AcDbSpline
210
0.0
220
0.0
230
1.0
 70
     8
 71
     3
 72
     8
 73
     4
 74
     0
 42
0.000000001
 43
0.00000001
 40
23.0
 40
23.0
 40
23.0
 40
23.0
 40
24.0
 40
24.0
 40
24.0
 40
24.0
 10
-45.06206706750421
 20
-129.2248053094691
 30
0.0
 10
-44.38269423764311
 20
-129.9909945455802
 30
0.0
 10
-43.71779080882363
 20
-130.5112039639831
 30
0.0
 10
-42.76349935917087
 20
-131.0610412035664
 30
0.0
  0
SPLINE
  5
202
330
F2
100
AcDbEntity
  8
レイヤー_1
 62
   250
100
AcDbSpline
210
0.0
220
0.0
230
1.0
 70
     8
 71
     3
 72
     8
 73
     4
 74
     0
 42
0.000000001
 43
0.00000001
 40
24.0
 40
24.0
 40
24.0
 40
24.0
 40
25.0
 40
25.0
 40
25.0
 40
25.0
 10
-42.76349935917087
 20
-131.0610412035664
 30
0.0
 10
-43.11076498417088
 20
-131.5226839987053
 30
0.0
 10
-43.32711698069867
 20
-131.9278272278719
 30
0.0
 10
-43.55862739736532
 20
-132.476975448358
 30
0.0
  0
SPLINE
  5
203
330
F2
100
AcDbEntity
  8
レイヤー_1
 62
   250
100
AcDbSpline
210
0.0
220
0.0
230
1.0
 70
     8
 71
     3
 72
     8
 73
     4
 74
     0
 42
0.000000001
 43
0.00000001
 40
25.0
 40
25.0
 40
25.0
 40
25.0
 40
26.0
 40
26.0
 40
26.0
 40
26.0
 10
-43.55862739736532
 20
-132.476975448358
 30
0.0
 10
-44.31103625153199
 20
-131.9857048320386
 30
0.0
 10
-44.80230686785143
 20
-131.5667812209275
 30
0.0
 10
-45.42311307444864
 20
-130.8440001879414
 30
0.0
  0
SPLINE
  5
204
330
F2
100
AcDbEntity
  8
レイヤー_1
 62
   250
100
AcDbSpline
210
0.0
220
0.0
230
1.0
 70
     8
 71
     3
 72
     8
 73
     4
 74
     0
 42
0.000000001
 43
0.00000001
 40
0.0
 40
0.0
 40
0.0
 40
0.0
 40
1.0
 40
1.0
 40
1.0
 40
1.0
 10
-54.58844510569865
 20
-127.4471360386358
 30
0.0
 10
-54.35693468903199
 20
-127.4471360386358
 30
0.0
 10
-54.2273990987542
 20
-127.4471360386358
 30
0.0
 10
-53.95316949805978
 20
-127.4319776184969
 30
0.0
  0
SPLINE
  5
205
330
F2
100
AcDbEntity
  8
レイヤー_1
 62
   250
100
AcDbSpline
210
0.0
220
0.0
230
1.0
 70
     8
 71
     3
 72
     8
 73
     4
 74
     0
 42
0.000000001
 43
0.00000001
 40
1.0
 40
1.0
 40
1.0
 40
1.0
 40
2.0
 40
2.0
 40
2.0
 40
2.0
 10
-53.95316949805978
 20
-127.4319776184969
 30
0.0
 10
-55.28297635569864
 20
-126.5210943719691
 30
0.0
 10
-56.10635417687921
 20
-125.7700635559969
 30
0.0
 10
-56.9745182393792
 20
-124.6276698928025
 30
0.0
  0
SPLINE
  5
206
330
F2
100
AcDbEntity
  8
レイヤー_1
 62
   250
100
AcDbSpline
210
0.0
220
0.0
230
1.0
 70
     8
 71
     3
 72
     8
 73
     4
 74
     0
 42
0.000000001
 43
0.00000001
 40
2.0
 40
2.0
 40
2.0
 40
2.0
 40
3.0
 40
3.0
 40
3.0
 40
3.0
 10
-56.9745182393792
 20
-124.6276698928025
 30
0.0
 10
-57.74139649458755
 20
-125.6543083476636
 30
0.0
 10
-58.6364323018792
 20
-126.492844588983
 30
0.0
 10
-59.98139757965698
 20
-127.4319776184969
 30
0.0
  0
SPLINE
  5
207
330
F2
100
AcDbEntity
  8
レイヤー_1
 62
   250
100
AcDbSpline
210
0.0
220
0.0
230
1.0
 70
     8
 71
     3
 72
     8
 73
     4
 74
     0
 42
0.000000001
 43
0.00000001
 40
3.0
 40
3.0
 40
3.0
 40
3.0
 40
4.0
 40
4.0
 40
4.0
 40
4.0
 10
-59.98139757965698
 20
-127.4319776184969
 30
0.0
 10
-59.73610678104588
 20
-127.4471360386358
 30
0.0
 10
-59.64860135569865
 20
-127.4471360386358
 30
0.0
 10
-59.38884115604586
 20
-127.4471360386358
 30
0.0
  0
SPLINE
  5
208
330
F2
100
AcDbEntity
  8
レイヤー_1
 62
   250
100
AcDbSpline
210
0.0
220
0.0
230
1.0
 70
     8
 71
     3
 72
     8
 73
     4
 74
     0
 42
0.000000001
 43
0.00000001
 40
0.0
 40
0.0
 40
0.0
 40
0.0
 40
1.0
 40
1.0
 40
1.0
 40
1.0
 10
-61.44142904667086
 20
-131.6246588250942
 30
0.0
 10
-62.17799046160144
 20
-131.6246588250942
 30
0.0
 10
-62.66926107792086
 20
-131.6535976271775
 30
0.0
 10
-63.14675131229588
 20
-131.7114752313442
 30
0.0
  0
SPLINE
  5
209
330
F2
100
AcDbEntity
  8
レイヤー_1
 62
   250
100
AcDbSpline
210
0.0
220
0.0
230
1.0
 70
     8
 71
     3
 72
     8
 73
     4
 74
     0
 42
0.000000001
 43
0.00000001
 40
2.0
 40
2.0
 40
2.0
 40
2.0
 40
3.0
 40
3.0
 40
3.0
 40
3.0
 10
-63.14675131229588
 20
-130.0350917678025
 30
0.0
 10
-62.66926107792086
 20
-130.0922803528719
 30
0.0
 10
-62.12011285743475
 20
-130.1212191549552
 30
0.0
 10
-61.44142904667086
 20
-130.1212191549552
 30
0.0
  0
SPLINE
  5
20A
330
F2
100
AcDbEntity
  8
レイヤー_1
 62
   250
100
AcDbSpline
210
0.0
220
0.0
230
1.0
 70
     8
 71
     3
 72
     8
 73
     4
 74
     0
 42
0.000000001
 43
0.00000001
 40
4.0
 40
4.0
 40
4.0
 40
4.0
 40
5.0
 40
5.0
 40
5.0
 40
5.0
 10
-52.43594944597643
 20
-130.1212191549552
 30
0.0
 10
-51.72694879493475
 20
-130.1212191549552
 30
0.0
 10
-51.21983073937921
 20
-130.0922803528719
 30
0.0
 10
-50.74302952410144
 20
-130.0350917678025
 30
0.0
  0
SPLINE
  5
20B
330
F2
100
AcDbEntity
  8
レイヤー_1
 62
   250
100
AcDbSpline
210
0.0
220
0.0
230
1.0
 70
     8
 71
     3
 72
     8
 73
     4
 74
     0
 42
0.000000001
 43
0.00000001
 40
6.0
 40
6.0
 40
6.0
 40
6.0
 40
7.0
 40
7.0
 40
7.0
 40
7.0
 10
-50.74302952410144
 20
-131.7114752313442
 30
0.0
 10
-51.21983073937921
 20
-131.6535976271775
 30
0.0
 10
-51.71316841299032
 20
-131.6246588250942
 30
0.0
 10
-52.43594944597643
 20
-131.6246588250942
 30
0.0
  0
SPLINE
  5
20C
330
F2
100
AcDbEntity
  8
レイヤー_1
 62
   250
100
AcDbSpline
210
0.0
220
0.0
230
1.0
 70
     8
 71
     3
 72
     8
 73
     4
 74
     0
 42
0.000000001
 43
0.00000001
 40
8.0
 40
8.0
 40
8.0
 40
8.0
 40
9.0
 40
9.0
 40
9.0
 40
9.0
 10
-57.40791125153198
 20
-131.6246588250942
 30
0.0
 10
-57.85715170292087
 20
-132.6795470629415
 30
0.0
 10
-58.30432509701809
 20
-133.5332417243997
 30
0.0
 10
-58.91135092167087
 20
-134.4289665507886
 30
0.0
  0
SPLINE
  5
20D
330
F2
100
AcDbEntity
  8
レイヤー_1
 62
   250
100
AcDbSpline
210
0.0
220
0.0
230
1.0
 70
     8
 71
     3
 72
     8
 73
     4
 74
     0
 42
0.000000001
 43
0.00000001
 40
9.0
 40
9.0
 40
9.0
 40
9.0
 40
10.0
 40
10.0
 40
10.0
 40
10.0
 10
-58.91135092167087
 20
-134.4289665507886
 30
0.0
 10
-56.35302301368475
 20
-134.2842725403719
 30
0.0
 10
-56.35302301368475
 20
-134.2842725403719
 30
0.0
 10
-54.32868490604587
 20
-134.0672315247469
 30
0.0
  0
SPLINE
  5
20E
330
F2
100
AcDbEntity
  8
レイヤー_1
 62
   250
100
AcDbSpline
210
0.0
220
0.0
230
1.0
 70
     8
 71
     3
 72
     8
 73
     4
 74
     0
 42
0.000000001
 43
0.00000001
 40
10.0
 40
10.0
 40
10.0
 40
10.0
 40
11.0
 40
11.0
 40
11.0
 40
11.0
 10
-54.32868490604587
 20
-134.0672315247469
 30
0.0
 10
-54.7917057393792
 20
-133.5614915073858
 30
0.0
 10
-55.03768555708754
 20
-133.3017313077331
 30
0.0
 10
-55.84659397722643
 20
-132.4631950664136
 30
0.0
  0
SPLINE
  5
20F
330
F2
100
AcDbEntity
  8
レイヤー_1
 62
   250
100
AcDbSpline
210
0.0
220
0.0
230
1.0
 70
     8
 71
     3
 72
     8
 73
     4
 74
     0
 42
0.000000001
 43
0.00000001
 40
12.0
 40
12.0
 40
12.0
 40
12.0
 40
13.0
 40
13.0
 40
13.0
 40
13.0
 10
-54.41481229319864
 20
-131.8272304396775
 30
0.0
 10
-52.86934245812921
 20
-133.3878586948858
 30
0.0
 10
-52.24646919424031
 20
-134.110639727872
 30
0.0
 10
-51.07582574805978
 20
-135.6871154223164
 30
0.0
  0
SPLINE
  5
210
330
F2
100
AcDbEntity
  8
レイヤー_1
 62
   250
100
AcDbSpline
210
0.0
220
0.0
230
1.0
 70
     8
 71
     3
 72
     8
 73
     4
 74
     0
 42
0.000000001
 43
0.00000001
 40
14.0
 40
14.0
 40
14.0
 40
14.0
 40
15.0
 40
15.0
 40
15.0
 40
15.0
 10
-52.46419922896254
 20
-136.597309649747
 30
0.0
 10
-52.94100044424032
 20
-135.8896870368997
 30
0.0
 10
-53.08500543555977
 20
-135.6871154223164
 30
0.0
 10
-53.3309852532681
 20
-135.3405388164136
 30
0.0
  0
SPLINE
  5
211
330
F2
100
AcDbEntity
  8
レイヤー_1
 62
   250
100
AcDbSpline
210
0.0
220
0.0
230
1.0
 70
     8
 71
     3
 72
     8
 73
     4
 74
     0
 42
0.000000001
 43
0.00000001
 40
15.0
 40
15.0
 40
15.0
 40
15.0
 40
16.0
 40
16.0
 40
16.0
 40
16.0
 10
-53.3309852532681
 20
-135.3405388164136
 30
0.0
 10
-54.530567501532
 20
-135.4983241896775
 30
0.0
 10
-55.398731564032
 20
-135.6002990160664
 30
0.0
 10
-55.93409940257364
 20
-135.6581766202331
 30
0.0
  0
SPLINE
  5
212
330
F2
100
AcDbEntity
  8
レイヤー_1
 62
   250
100
AcDbSpline
210
0.0
220
0.0
230
1.0
 70
     8
 71
     3
 72
     8
 73
     4
 74
     0
 42
0.000000001
 43
0.00000001
 40
16.0
 40
16.0
 40
16.0
 40
16.0
 40
17.0
 40
17.0
 40
17.0
 40
17.0
 10
-55.93409940257364
 20
-135.6581766202331
 30
0.0
 10
-57.36381402930976
 20
-135.7877122105108
 30
0.0
 10
-60.22737739736532
 20
-136.0481614292608
 30
0.0
 10
-60.80477540083753
 20
-136.0915696323858
 30
0.0
  0
SPLINE
  5
213
330
F2
100
AcDbEntity
  8
レイヤー_1
 62
   250
100
AcDbSpline
210
0.0
220
0.0
230
1.0
 70
     8
 71
     3
 72
     8
 73
     4
 74
     0
 42
0.000000001
 43
0.00000001
 40
17.0
 40
17.0
 40
17.0
 40
17.0
 40
18.0
 40
18.0
 40
18.0
 40
18.0
 10
-60.80477540083753
 20
-136.0915696323858
 30
0.0
 10
-61.61506185917086
 20
-136.1494472365525
 30
0.0
 10
-62.33784289215697
 20
-136.2211052226636
 30
0.0
 10
-62.66926107792086
 20
-136.2941412469692
 30
0.0
  0
SPLINE
  5
214
330
F2
100
AcDbEntity
  8
レイヤー_1
 62
   250
100
AcDbSpline
210
0.0
220
0.0
230
1.0
 70
     8
 71
     3
 72
     8
 73
     4
 74
     0
 42
0.000000001
 43
0.00000001
 40
19.0
 40
19.0
 40
19.0
 40
19.0
 40
20.0
 40
20.0
 40
20.0
 40
20.0
 10
-62.90077149458753
 20
-134.5302523580803
 30
0.0
 10
-62.51147570465697
 20
-134.5598801792608
 30
0.0
 10
-62.26549588694864
 20
-134.5736605612053
 30
0.0
 10
-62.06223525326808
 20
-134.5736605612053
 30
0.0
  0
SPLINE
  5
215
330
F2
100
AcDbEntity
  8
レイヤー_1
 62
   250
100
AcDbSpline
210
0.0
220
0.0
230
1.0
 70
     8
 71
     3
 72
     8
 73
     4
 74
     0
 42
0.000000001
 43
0.00000001
 40
20.0
 40
20.0
 40
20.0
 40
20.0
 40
21.0
 40
21.0
 40
21.0
 40
21.0
 10
-62.06223525326808
 20
-134.5736605612053
 30
0.0
 10
-61.96232748417086
 20
-134.5736605612053
 30
0.0
 10
-61.52755643382363
 20
-134.5598801792608
 30
0.0
 10
-60.79030599979588
 20
-134.5157829570386
 30
0.0
  0
SPLINE
  5
216
330
F2
100
AcDbEntity
  8
レイヤー_1
 62
   250
100
AcDbSpline
210
0.0
220
0.0
230
1.0
 70
     8
 71
     3
 72
     8
 73
     4
 74
     0
 42
0.000000001
 43
0.00000001
 40
21.0
 40
21.0
 40
21.0
 40
21.0
 40
22.0
 40
22.0
 40
22.0
 40
22.0
 10
-60.79030599979588
 20
-134.5157829570386
 30
0.0
 10
-60.08199436785143
 20
-133.4457362990526
 30
0.0
 10
-59.634131954657
 20
-132.6072000577331
 30
0.0
 10
-59.24483616472644
 20
-131.6246588250942
 30
0.0
  0
SPLINE
  5
217
330
F2
100
AcDbEntity
  8
レイヤー_1
 62
   250
100
AcDbSpline
210
0.0
220
0.0
230
1.0
 70
     8
 71
     3
 72
     8
 73
     4
 74
     0
 42
0.000000001
 43
0.00000001
 40
0.0
 40
0.0
 40
0.0
 40
0.0
 40
1.0
 40
1.0
 40
1.0
 40
1.0
 10
-60.64630100847643
 20
-127.894309432733
 30
0.0
 10
-61.54271485396254
 20
-128.473774493497
 30
0.0
 10
-61.94648004493475
 20
-128.6894374709275
 30
0.0
 10
-62.95864909875419
 20
-129.1386779223164
 30
0.0
  0
SPLINE
  5
218
330
F2
100
AcDbEntity
  8
レイヤー_1
 62
   250
100
AcDbSpline
210
0.0
220
0.0
230
1.0
 70
     8
 71
     3
 72
     8
 73
     4
 74
     0
 42
0.000000001
 43
0.00000001
 40
1.0
 40
1.0
 40
1.0
 40
1.0
 40
2.0
 40
2.0
 40
2.0
 40
2.0
 10
-62.95864909875419
 20
-129.1386779223164
 30
0.0
 10
-63.20462891646253
 20
-128.5599018806497
 30
0.0
 10
-63.43613933312919
 20
-128.1547586514831
 30
0.0
 10
-63.79787435917086
 20
-127.6627990160664
 30
0.0
  0
SPLINE
  5
219
330
F2
100
AcDbEntity
  8
レイヤー_1
 62
   250
100
AcDbSpline
210
0.0
220
0.0
230
1.0
 70
     8
 71
     3
 72
     8
 73
     4
 74
     0
 42
0.000000001
 43
0.00000001
 40
2.0
 40
2.0
 40
2.0
 40
2.0
 40
3.0
 40
3.0
 40
3.0
 40
3.0
 10
-63.79787435917086
 20
-127.6627990160664
 30
0.0
 10
-62.23586806576809
 20
-127.0419928094692
 30
0.0
 10
-61.26779623417086
 20
-126.5066249709275
 30
0.0
 10
-60.16949979319865
 20
-125.6543083476636
 30
0.0
  0
SPLINE
  5
21A
330
F2
100
AcDbEntity
  8
レイヤー_1
 62
   250
100
AcDbSpline
210
0.0
220
0.0
230
1.0
 70
     8
 71
     3
 72
     8
 73
     4
 74
     0
 42
0.000000001
 43
0.00000001
 40
3.0
 40
3.0
 40
3.0
 40
3.0
 40
4.0
 40
4.0
 40
4.0
 40
4.0
 10
-60.16949979319865
 20
-125.6543083476636
 30
0.0
 10
-59.21520834354587
 20
-124.9170579136358
 30
0.0
 10
-58.47795790951808
 20
-124.1508686775247
 30
0.0
 10
-57.88540148590697
 20
-123.2255160299553
 30
0.0
  0
SPLINE
  5
21B
330
F2
100
AcDbEntity
  8
レイヤー_1
 62
   250
100
AcDbSpline
210
0.0
220
0.0
230
1.0
 70
     8
 71
     3
 72
     8
 73
     4
 74
     0
 42
0.000000001
 43
0.00000001
 40
5.0
 40
5.0
 40
5.0
 40
5.0
 40
6.0
 40
6.0
 40
6.0
 40
6.0
 10
-56.16423178104586
 20
-123.2255160299553
 30
0.0
 10
-55.398731564032
 20
-124.2948736688442
 30
0.0
 10
-54.81995552236531
 20
-124.8591803094692
 30
0.0
 10
-53.72165908139311
 20
-125.6253695455803
 30
0.0
  0
SPLINE
  5
21C
330
F2
100
AcDbEntity
  8
レイヤー_1
 62
   250
100
AcDbSpline
210
0.0
220
0.0
230
1.0
 70
     8
 71
     3
 72
     8
 73
     4
 74
     0
 42
0.000000001
 43
0.00000001
 40
6.0
 40
6.0
 40
6.0
 40
6.0
 40
7.0
 40
7.0
 40
7.0
 40
7.0
 10
-53.72165908139311
 20
-125.6253695455803
 30
0.0
 10
-52.4938270501431
 20
-126.492844588983
 30
0.0
 10
-51.32180556576809
 20
-127.0998704136358
 30
0.0
 10
-50.00577909007367
 20
-127.5766716289136
 30
0.0
  0
SPLINE
  5
21D
330
F2
100
AcDbEntity
  8
レイヤー_1
 62
   250
100
AcDbSpline
210
0.0
220
0.0
230
1.0
 70
     8
 71
     3
 72
     8
 73
     4
 74
     0
 42
0.000000001
 43
0.00000001
 40
7.0
 40
7.0
 40
7.0
 40
7.0
 40
8.0
 40
8.0
 40
8.0
 40
8.0
 10
-50.00577909007367
 20
-127.5766716289136
 30
0.0
 10
-50.41092231924032
 20
-128.198166854608
 30
0.0
 10
-50.59902453278197
 20
-128.6033100837747
 30
0.0
 10
-50.80090712826809
 20
-129.1965555264831
 30
0.0
  0
SPLINE
  5
21E
330
F2
100
AcDbEntity
  8
レイヤー_1
 62
   250
100
AcDbSpline
210
0.0
220
0.0
230
1.0
 70
     8
 71
     3
 72
     8
 73
     4
 74
     0
 42
0.000000001
 43
0.00000001
 40
8.0
 40
8.0
 40
8.0
 40
8.0
 40
9.0
 40
9.0
 40
9.0
 40
9.0
 10
-50.80090712826809
 20
-129.1965555264831
 30
0.0
 10
-51.71316841299032
 20
-128.8051926792608
 30
0.0
 10
-52.26231663347644
 20
-128.5164936775247
 30
0.0
 10
-53.27310764910141
 20
-127.8805290507886
 30
0.0
  0
SPLINE
  5
21F
330
F2
100
AcDbEntity
  8
レイヤー_1
 62
   250
100
AcDbSpline
210
0.0
220
0.0
230
1.0
 70
     8
 71
     3
 72
     8
 73
     4
 74
     0
 42
0.000000001
 43
0.00000001
 40
10.0
 40
10.0
 40
10.0
 40
10.0
 40
11.0
 40
11.0
 40
11.0
 40
11.0
 10
-53.27310764910141
 20
-129.0077642938442
 30
0.0
 10
-53.65000109528197
 20
-128.9650451098164
 30
0.0
 10
-54.02551650326809
 20
-128.9505757087747
 30
0.0
 10
-54.5746647237542
 20
-128.9505757087747
 30
0.0
  0
SPLINE
  5
220
330
F2
100
AcDbEntity
  8
レイヤー_1
 62
   250
100
AcDbSpline
210
0.0
220
0.0
230
1.0
 70
     8
 71
     3
 72
     8
 73
     4
 74
     0
 42
0.000000001
 43
0.00000001
 40
12.0
 40
12.0
 40
12.0
 40
12.0
 40
13.0
 40
13.0
 40
13.0
 40
13.0
 10
-59.40262153799032
 20
-128.9505757087747
 30
0.0
 10
-59.82223416819865
 20
-128.9505757087747
 30
0.0
 10
-60.25562718035145
 20
-128.9650451098164
 30
0.0
 10
-60.64630100847643
 20
-129.0077642938442
 30
0.0
  0
SPLINE
  5
221
330
F2
100
AcDbEntity
  8
レイヤー_1
 62
   250
100
AcDbSpline
210
0.0
220
0.0
230
1.0
 70
     8
 71
     3
 72
     8
 73
     4
 74
     0
 42
0.000000001
 43
0.00000001
 40
0.0
 40
0.0
 40
0.0
 40
0.0
 40
1.0
 40
1.0
 40
1.0
 40
1.0
 10
-75.8694889425042
 20
-130.2948519674553
 30
0.0
 10
-76.41863716299031
 20
-130.2948519674553
 30
0.0
 10
-76.9243771803514
 20
-130.3237907695386
 30
0.0
 10
-77.32952040951807
 20
-130.3665099535664
 30
0.0
  0
SPLINE
  5
222
330
F2
100
AcDbEntity
  8
レイヤー_1
 62
   250
100
AcDbSpline
210
0.0
220
0.0
230
1.0
 70
     8
 71
     3
 72
     8
 73
     4
 74
     0
 42
0.000000001
 43
0.00000001
 40
2.0
 40
2.0
 40
2.0
 40
2.0
 40
3.0
 40
3.0
 40
3.0
 40
3.0
 10
-77.32952040951807
 20
-128.8348205004414
 30
0.0
 10
-76.96778538347642
 20
-128.8782287035664
 30
0.0
 10
-76.47651476715697
 20
-128.9071675056497
 30
0.0
 10
-75.83986112132364
 20
-128.9071675056497
 30
0.0
  0
SPLINE
  5
223
330
F2
100
AcDbEntity
  8
レイヤー_1
 62
   250
100
AcDbSpline
210
0.0
220
0.0
230
1.0
 70
     8
 71
     3
 72
     8
 73
     4
 74
     0
 42
0.000000001
 43
0.00000001
 40
4.0
 40
4.0
 40
4.0
 40
4.0
 40
5.0
 40
5.0
 40
5.0
 40
5.0
 10
-72.34171116472643
 20
-128.9071675056497
 30
0.0
 10
-71.70505751889308
 20
-128.9071675056497
 30
0.0
 10
-71.2434147237542
 20
-128.8782287035664
 30
0.0
 10
-70.88167969771253
 20
-128.8348205004414
 30
0.0
  0
SPLINE
  5
224
330
F2
100
AcDbEntity
  8
レイヤー_1
 62
   250
100
AcDbSpline
210
0.0
220
0.0
230
1.0
 70
     8
 71
     3
 72
     8
 73
     4
 74
     0
 42
0.000000001
 43
0.00000001
 40
6.0
 40
6.0
 40
6.0
 40
6.0
 40
7.0
 40
7.0
 40
7.0
 40
7.0
 10
-70.88167969771253
 20
-130.3665099535664
 30
0.0
 10
-71.30129232792086
 20
-130.3237907695386
 30
0.0
 10
-71.77809354319864
 20
-130.2948519674553
 30
0.0
 10
-72.32724176368475
 20
-130.2948519674553
 30
0.0
  0
SPLINE
  5
225
330
F2
100
AcDbEntity
  8
レイヤー_1
 62
   250
100
AcDbSpline
210
0.0
220
0.0
230
1.0
 70
     8
 71
     3
 72
     8
 73
     4
 74
     0
 42
0.000000001
 43
0.00000001
 40
9.0
 40
9.0
 40
9.0
 40
9.0
 40
10.0
 40
10.0
 40
10.0
 40
10.0
 10
-73.32425239736531
 20
-133.5759609084275
 30
0.0
 10
-72.31346138174031
 20
-133.3733892938442
 30
0.0
 10
-71.74846572201807
 20
-133.2576340855108
 30
0.0
 10
-70.36078126021253
 20
-132.911057479608
 30
0.0
  0
SPLINE
  5
226
330
F2
100
AcDbEntity
  8
レイヤー_1
 62
   250
100
AcDbSpline
210
0.0
220
0.0
230
1.0
 70
     8
 71
     3
 72
     8
 73
     4
 74
     0
 42
0.000000001
 43
0.00000001
 40
11.0
 40
11.0
 40
11.0
 40
11.0
 40
12.0
 40
12.0
 40
12.0
 40
12.0
 10
-70.36078126021253
 20
-134.3862473667608
 30
0.0
 10
-72.80473199805974
 20
-134.978803790372
 30
0.0
 10
-75.08883030535142
 20
-135.4411356046081
 30
0.0
 10
-77.02566298764307
 20
-135.7298346063442
 30
0.0
  0
SPLINE
  5
227
330
F2
100
AcDbEntity
  8
レイヤー_1
 62
   250
100
AcDbSpline
210
0.0
220
0.0
230
1.0
 70
     8
 71
     3
 72
     8
 73
     4
 74
     0
 42
0.000000001
 43
0.00000001
 40
12.0
 40
12.0
 40
12.0
 40
12.0
 40
13.0
 40
13.0
 40
13.0
 40
13.0
 10
-77.02566298764307
 20
-135.7298346063442
 30
0.0
 10
-77.15588759701808
 20
-135.7594624275247
 30
0.0
 10
-77.31505100847643
 20
-135.7877122105108
 30
0.0
 10
-77.56103082618475
 20
-135.8318094327331
 30
0.0
  0
SPLINE
  5
228
330
F2
100
AcDbEntity
  8
レイヤー_1
 62
   250
100
AcDbSpline
210
0.0
220
0.0
230
1.0
 70
     8
 71
     3
 72
     8
 73
     4
 74
     0
 42
0.000000001
 43
0.00000001
 40
14.0
 40
14.0
 40
14.0
 40
14.0
 40
15.0
 40
15.0
 40
15.0
 40
15.0
 10
-77.82079102583754
 20
-134.1981451532192
 30
0.0
 10
-77.21376520118474
 20
-134.1981451532192
 30
0.0
 10
-76.53439237132363
 20
-134.110639727872
 30
0.0
 10
-74.91519749285143
 20
-133.8646599101636
 30
0.0
  0
SPLINE
  5
229
330
F2
100
AcDbEntity
  8
レイヤー_1
 62
   250
100
AcDbSpline
210
0.0
220
0.0
230
1.0
 70
     8
 71
     3
 72
     8
 73
     4
 74
     0
 42
0.000000001
 43
0.00000001
 40
0.0
 40
0.0
 40
0.0
 40
0.0
 40
1.0
 40
1.0
 40
1.0
 40
1.0
 10
-66.39961047028197
 20
-125.6680887296081
 30
0.0
 10
-65.72023764042088
 20
-125.6680887296081
 30
0.0
 10
-65.35919163347644
 20
-125.6543083476636
 30
0.0
 10
-64.99745660743476
 20
-125.5819613424552
 30
0.0
  0
SPLINE
  5
22A
330
F2
100
AcDbEntity
  8
レイヤー_1
 62
   250
100
AcDbSpline
210
0.0
220
0.0
230
1.0
 70
     8
 71
     3
 72
     8
 73
     4
 74
     0
 42
0.000000001
 43
0.00000001
 40
2.0
 40
2.0
 40
2.0
 40
2.0
 40
3.0
 40
3.0
 40
3.0
 40
3.0
 10
-64.99745660743476
 20
-127.2004672018302
 30
0.0
 10
-65.40259983660144
 20
-127.1432786167608
 30
0.0
 10
-65.9662174581292
 20
-127.1136507955803
 30
0.0
 10
-66.68899849111531
 20
-127.1136507955803
 30
0.0
  0
SPLINE
  5
22B
330
F2
100
AcDbEntity
  8
レイヤー_1
 62
   250
100
AcDbSpline
210
0.0
220
0.0
230
1.0
 70
     8
 71
     3
 72
     8
 73
     4
 74
     0
 42
0.000000001
 43
0.00000001
 40
4.0
 40
4.0
 40
4.0
 40
4.0
 40
5.0
 40
5.0
 40
5.0
 40
5.0
 10
-68.79946398590698
 20
-127.1136507955803
 30
0.0
 10
-68.66923937653198
 20
-129.6299485386358
 30
0.0
 10
-68.35160157271253
 20
-131.3497402053025
 30
0.0
 10
-67.78729493208753
 20
-132.6795470629415
 30
0.0
  0
SPLINE
  5
22C
330
F2
100
AcDbEntity
  8
レイヤー_1
 62
   250
100
AcDbSpline
210
0.0
220
0.0
230
1.0
 70
     8
 71
     3
 72
     8
 73
     4
 74
     0
 42
0.000000001
 43
0.00000001
 40
5.0
 40
5.0
 40
5.0
 40
5.0
 40
6.0
 40
6.0
 40
6.0
 40
6.0
 10
-67.78729493208753
 20
-132.6795470629415
 30
0.0
 10
-67.5130653313931
 20
-133.3155116896775
 30
0.0
 10
-67.22367731055975
 20
-133.806782305997
 30
0.0
 10
-66.92050890778197
 20
-134.110639727872
 30
0.0
  0
SPLINE
  5
22D
330
F2
100
AcDbEntity
  8
レイヤー_1
 62
   250
100
AcDbSpline
210
0.0
220
0.0
230
1.0
 70
     8
 71
     3
 72
     8
 73
     4
 74
     0
 42
0.000000001
 43
0.00000001
 40
6.0
 40
6.0
 40
6.0
 40
6.0
 40
7.0
 40
7.0
 40
7.0
 40
7.0
 10
-66.92050890778197
 20
-134.110639727872
 30
0.0
 10
-66.77650391646253
 20
-134.2560227573859
 30
0.0
 10
-66.63112088694864
 20
-134.3717779657191
 30
0.0
 10
-66.58840170292086
 20
-134.3717779657191
 30
0.0
  0
SPLINE
  5
22E
330
F2
100
AcDbEntity
  8
レイヤー_1
 62
   250
100
AcDbSpline
210
0.0
220
0.0
230
1.0
 70
     8
 71
     3
 72
     8
 73
     4
 74
     0
 42
0.000000001
 43
0.00000001
 40
7.0
 40
7.0
 40
7.0
 40
7.0
 40
8.0
 40
8.0
 40
8.0
 40
8.0
 10
-66.58840170292086
 20
-134.3717779657191
 30
0.0
 10
-66.41476889042086
 20
-134.3717779657191
 30
0.0
 10
-66.24113607792087
 20
-133.6772467157192
 30
0.0
 10
-66.05372288347642
 20
-132.1738070455803
 30
0.0
  0
SPLINE
  5
22F
330
F2
100
AcDbEntity
  8
レイヤー_1
 62
   250
100
AcDbSpline
210
0.0
220
0.0
230
1.0
 70
     8
 71
     3
 72
     8
 73
     4
 74
     0
 42
0.000000001
 43
0.00000001
 40
8.0
 40
8.0
 40
8.0
 40
8.0
 40
9.0
 40
9.0
 40
9.0
 40
9.0
 10
-66.05372288347642
 20
-132.1738070455803
 30
0.0
 10
-65.44669705882366
 20
-132.6072000577331
 30
0.0
 10
-65.19933920292087
 20
-132.752583087247
 30
0.0
 10
-64.67981880361532
 20
-132.9834044848164
 30
0.0
  0
SPLINE
  5
230
330
F2
100
AcDbEntity
  8
レイヤー_1
 62
   250
100
AcDbSpline
210
0.0
220
0.0
230
1.0
 70
     8
 71
     3
 72
     8
 73
     4
 74
     0
 42
0.000000001
 43
0.00000001
 40
9.0
 40
9.0
 40
9.0
 40
9.0
 40
10.0
 40
10.0
 40
10.0
 40
10.0
 10
-64.67981880361532
 20
-132.9834044848164
 30
0.0
 10
-64.89617080014308
 20
-134.3717779657191
 30
0.0
 10
-65.14283963694864
 20
-135.1806863858581
 30
0.0
 10
-65.50457466299031
 20
-135.7015848233581
 30
0.0
  0
SPLINE
  5
231
330
F2
100
AcDbEntity
  8
レイヤー_1
 62
   250
100
AcDbSpline
210
0.0
220
0.0
230
1.0
 70
     8
 71
     3
 72
     8
 73
     4
 74
     0
 42
0.000000001
 43
0.00000001
 40
10.0
 40
10.0
 40
10.0
 40
10.0
 40
11.0
 40
11.0
 40
11.0
 40
11.0
 10
-65.50457466299031
 20
-135.7015848233581
 30
0.0
 10
-65.77811524458754
 20
-136.0915696323858
 30
0.0
 10
-66.12538086958754
 20
-136.3086106480108
 30
0.0
 10
-66.50089627757364
 20
-136.3086106480108
 30
0.0
  0
SPLINE
  5
232
330
F2
100
AcDbEntity
  8
レイヤー_1
 62
   250
100
AcDbSpline
210
0.0
220
0.0
230
1.0
 70
     8
 71
     3
 72
     8
 73
     4
 74
     0
 42
0.000000001
 43
0.00000001
 40
11.0
 40
11.0
 40
11.0
 40
11.0
 40
12.0
 40
12.0
 40
12.0
 40
12.0
 10
-66.50089627757364
 20
-136.3086106480108
 30
0.0
 10
-67.05004449805975
 20
-136.3086106480108
 30
0.0
 10
-67.78729493208753
 20
-135.7594624275247
 30
0.0
 10
-68.42394857792088
 20
-134.9064567851636
 30
0.0
  0
SPLINE
  5
233
330
F2
100
AcDbEntity
  8
レイヤー_1
 62
   250
100
AcDbSpline
210
0.0
220
0.0
230
1.0
 70
     8
 71
     3
 72
     8
 73
     4
 74
     0
 42
0.000000001
 43
0.00000001
 40
12.0
 40
12.0
 40
12.0
 40
12.0
 40
13.0
 40
13.0
 40
13.0
 40
13.0
 10
-68.42394857792088
 20
-134.9064567851636
 30
0.0
 10
-69.16050999285142
 20
-133.8798183303025
 30
0.0
 10
-69.71034723243474
 20
-132.4190978441914
 30
0.0
 10
-70.02936307444864
 20
-130.554612167108
 30
0.0
  0
SPLINE
  5
234
330
F2
100
AcDbEntity
  8
レイヤー_1
 62
   250
100
AcDbSpline
210
0.0
220
0.0
230
1.0
 70
     8
 71
     3
 72
     8
 73
     4
 74
     0
 42
0.000000001
 43
0.00000001
 40
13.0
 40
13.0
 40
13.0
 40
13.0
 40
14.0
 40
14.0
 40
14.0
 40
14.0
 10
-70.02936307444864
 20
-130.554612167108
 30
0.0
 10
-70.23124566993475
 20
-129.3839687209275
 30
0.0
 10
-70.25949545292086
 20
-129.1235195021775
 30
0.0
 10
-70.3752506612542
 20
-127.1136507955803
 30
0.0
  0
SPLINE
  5
235
330
F2
100
AcDbEntity
  8
レイヤー_1
 62
   250
100
AcDbSpline
210
0.0
220
0.0
230
1.0
 70
     8
 71
     3
 72
     8
 73
     4
 74
     0
 42
0.000000001
 43
0.00000001
 40
15.0
 40
15.0
 40
15.0
 40
15.0
 40
16.0
 40
16.0
 40
16.0
 40
16.0
 10
-76.15749892514307
 20
-127.1136507955803
 30
0.0
 10
-76.79415257097642
 20
-127.1136507955803
 30
0.0
 10
-77.31505100847643
 20
-127.1432786167608
 30
0.0
 10
-77.84904080882364
 20
-127.2004672018302
 30
0.0
  0
SPLINE
  5
236
330
F2
100
AcDbEntity
  8
レイヤー_1
 62
   250
100
AcDbSpline
210
0.0
220
0.0
230
1.0
 70
     8
 71
     3
 72
     8
 73
     4
 74
     0
 42
0.000000001
 43
0.00000001
 40
17.0
 40
17.0
 40
17.0
 40
17.0
 40
18.0
 40
18.0
 40
18.0
 40
18.0
 10
-77.84904080882364
 20
-125.5819613424552
 30
0.0
 10
-77.40117839562919
 20
-125.6398389466219
 30
0.0
 10
-76.86649957618474
 20
-125.6680887296081
 30
0.0
 10
-76.15749892514307
 20
-125.6680887296081
 30
0.0
  0
SPLINE
  5
237
330
F2
100
AcDbEntity
  8
レイヤー_1
 62
   250
100
AcDbSpline
210
0.0
220
0.0
230
1.0
 70
     8
 71
     3
 72
     8
 73
     4
 74
     0
 42
0.000000001
 43
0.00000001
 40
19.0
 40
19.0
 40
19.0
 40
19.0
 40
20.0
 40
20.0
 40
20.0
 40
20.0
 10
-70.43312826542086
 20
-125.6680887296081
 30
0.0
 10
-70.47653646854587
 20
-124.9170579136358
 30
0.0
 10
-70.47653646854587
 20
-124.9170579136358
 30
0.0
 10
-70.47653646854587
 20
-124.4829758823858
 30
0.0
  0
SPLINE
  5
238
330
F2
100
AcDbEntity
  8
レイヤー_1
 62
   250
100
AcDbSpline
210
0.0
220
0.0
230
1.0
 70
     8
 71
     3
 72
     8
 73
     4
 74
     0
 42
0.000000001
 43
0.00000001
 40
20.0
 40
20.0
 40
20.0
 40
20.0
 40
21.0
 40
21.0
 40
21.0
 40
21.0
 10
-70.47653646854587
 20
-124.4829758823858
 30
0.0
 10
-70.47653646854587
 20
-124.1219298754414
 30
0.0
 10
-70.52063369076808
 20
-123.615500838983
 30
0.0
 10
-70.56266385569864
 20
-123.3557406393302
 30
0.0
  0
SPLINE
  5
239
330
F2
100
AcDbEntity
  8
レイヤー_1
 62
   250
100
AcDbSpline
210
0.0
220
0.0
230
1.0
 70
     8
 71
     3
 72
     8
 73
     4
 74
     0
 42
0.000000001
 43
0.00000001
 40
22.0
 40
22.0
 40
22.0
 40
22.0
 40
23.0
 40
23.0
 40
23.0
 40
23.0
 10
-68.81324436785142
 20
-123.3557406393302
 30
0.0
 10
-68.85734159007364
 20
-123.7174756653719
 30
0.0
 10
-68.87112197201809
 20
-124.1067714553025
 30
0.0
 10
-68.87112197201809
 20
-124.5263840855108
 30
0.0
  0
SPLINE
  5
23A
330
F2
100
AcDbEntity
  8
レイヤー_1
 62
   250
100
AcDbSpline
210
0.0
220
0.0
230
1.0
 70
     8
 71
     3
 72
     8
 73
     4
 74
     0
 42
0.000000001
 43
0.00000001
 40
23.0
 40
23.0
 40
23.0
 40
23.0
 40
24.0
 40
24.0
 40
24.0
 40
24.0
 10
-68.87112197201809
 20
-124.5263840855108
 30
0.0
 10
-68.87112197201809
 20
-124.7716748841219
 30
0.0
 10
-68.87112197201809
 20
-125.1912875143303
 30
0.0
 10
-68.85734159007364
 20
-125.6680887296081
 30
0.0
  0
SPLINE
  5
23B
330
F2
100
AcDbEntity
  8
レイヤー_1
 62
   250
100
AcDbSpline
210
0.0
220
0.0
230
1.0
 70
     8
 71
     3
 72
     8
 73
     4
 74
     0
 42
0.000000001
 43
0.00000001
 40
25.0
 40
25.0
 40
25.0
 40
25.0
 40
26.0
 40
26.0
 40
26.0
 40
26.0
 10
-67.15201932444864
 20
-125.6680887296081
 30
0.0
 10
-67.55716255361531
 20
-125.0176547018303
 30
0.0
 10
-67.8885807393792
 20
-124.613889510858
 30
0.0
 10
-68.52523438521253
 20
-123.962766463983
 30
0.0
  0
SPLINE
  5
23C
330
F2
100
AcDbEntity
  8
レイヤー_1
 62
   250
100
AcDbSpline
210
0.0
220
0.0
230
1.0
 70
     8
 71
     3
 72
     8
 73
     4
 74
     0
 42
0.000000001
 43
0.00000001
 40
27.0
 40
27.0
 40
27.0
 40
27.0
 40
28.0
 40
28.0
 40
28.0
 40
28.0
 10
-67.26777453278197
 20
-123.3702100403719
 30
0.0
 10
-66.6449012688931
 20
-123.9910162469692
 30
0.0
 10
-66.47264649458754
 20
-124.179807479608
 30
0.0
 10
-65.83599284875419
 20
-125.0031853007886
 30
0.0
  0
SPLINE
  5
23D
330
F2
100
AcDbEntity
  8
レイヤー_1
 62
   250
100
AcDbSpline
210
0.0
220
0.0
230
1.0
 70
     8
 71
     3
 72
     8
 73
     4
 74
     0
 42
0.000000001
 43
0.00000001
 40
0.0
 40
0.0
 40
0.0
 40
0.0
 40
1.0
 40
1.0
 40
1.0
 40
1.0
 10
-86.17652561785141
 20
-126.9551764032191
 30
0.0
 10
-86.45075521854585
 20
-127.6200798320386
 30
0.0
 10
-86.55204102583753
 20
-127.8364318285664
 30
0.0
 10
-86.98612305708753
 20
-128.5599018806497
 30
0.0
  0
SPLINE
  5
23E
330
F2
100
AcDbEntity
  8
レイヤー_1
 62
   250
100
AcDbSpline
210
0.0
220
0.0
230
1.0
 70
     8
 71
     3
 72
     8
 73
     4
 74
     0
 42
0.000000001
 43
0.00000001
 40
1.0
 40
1.0
 40
1.0
 40
1.0
 40
2.0
 40
2.0
 40
2.0
 40
2.0
 10
-86.98612305708753
 20
-128.5599018806497
 30
0.0
 10
-87.33338868208752
 20
-128.198166854608
 30
0.0
 10
-87.33338868208752
 20
-128.198166854608
 30
0.0
 10
-88.17192492340698
 20
-127.6200798320386
 30
0.0
  0
SPLINE
  5
23F
330
F2
100
AcDbEntity
  8
レイヤー_1
 62
   250
100
AcDbSpline
210
0.0
220
0.0
230
1.0
 70
     8
 71
     3
 72
     8
 73
     4
 74
     0
 42
0.000000001
 43
0.00000001
 40
2.0
 40
2.0
 40
2.0
 40
2.0
 40
3.0
 40
3.0
 40
3.0
 40
3.0
 10
-88.17192492340698
 20
-127.6200798320386
 30
0.0
 10
-88.04170031403197
 20
-127.4471360386358
 30
0.0
 10
-87.99829211090699
 20
-127.3892584344691
 30
0.0
 10
-87.92594510569864
 20
-127.2735032261358
 30
0.0
  0
SPLINE
  5
240
330
F2
100
AcDbEntity
  8
レイヤー_1
 62
   250
100
AcDbSpline
210
0.0
220
0.0
230
1.0
 70
     8
 71
     3
 72
     8
 73
     4
 74
     0
 42
0.000000001
 43
0.00000001
 40
3.0
 40
3.0
 40
3.0
 40
3.0
 40
4.0
 40
4.0
 40
4.0
 40
4.0
 10
-87.92594510569864
 20
-127.2735032261358
 30
0.0
 10
-88.12782770118474
 20
-127.2438754049553
 30
0.0
 10
-88.37380751889307
 20
-127.2294060039136
 30
0.0
 10
-88.63356771854586
 20
-127.2294060039136
 30
0.0
  0
SPLINE
  5
241
330
F2
100
AcDbEntity
  8
レイヤー_1
 62
   250
100
AcDbSpline
210
0.0
220
0.0
230
1.0
 70
     8
 71
     3
 72
     8
 73
     4
 74
     0
 42
0.000000001
 43
0.00000001
 40
5.0
 40
5.0
 40
5.0
 40
5.0
 40
6.0
 40
6.0
 40
6.0
 40
6.0
 10
-88.9946137254903
 20
-127.2294060039136
 30
0.0
 10
-88.69144532271253
 20
-127.981125838983
 30
0.0
 10
-88.2718326925042
 20
-128.6756570889831
 30
0.0
 10
-87.6365570848653
 20
-129.5141933303025
 30
0.0
  0
SPLINE
  5
242
330
F2
100
AcDbEntity
  8
レイヤー_1
 62
   250
100
AcDbSpline
210
0.0
220
0.0
230
1.0
 70
     8
 71
     3
 72
     8
 73
     4
 74
     0
 42
0.000000001
 43
0.00000001
 40
7.0
 40
7.0
 40
7.0
 40
7.0
 40
8.0
 40
8.0
 40
8.0
 40
8.0
 10
-87.6365570848653
 20
-128.6894374709275
 30
0.0
 10
-87.17353625153197
 20
-128.7473150750942
 30
0.0
 10
-86.75392362132364
 20
-128.7769428962747
 30
0.0
 10
-86.06077040951808
 20
-128.7769428962747
 30
0.0
  0
SPLINE
  5
243
330
F2
100
AcDbEntity
  8
レイヤー_1
 62
   250
100
AcDbSpline
210
0.0
220
0.0
230
1.0
 70
     8
 71
     3
 72
     8
 73
     4
 74
     0
 42
0.000000001
 43
0.00000001
 40
1.0
 40
1.0
 40
1.0
 40
1.0
 40
2.0
 40
2.0
 40
2.0
 40
2.0
 10
-80.88554797028198
 20
-128.7769428962747
 30
0.0
 10
-80.22064454146253
 20
-128.7769428962747
 30
0.0
 10
-79.8010319112542
 20
-128.7473150750942
 30
0.0
 10
-79.33801107792087
 20
-128.6894374709275
 30
0.0
  0
SPLINE
  5
244
330
F2
100
AcDbEntity
  8
レイヤー_1
 62
   250
100
AcDbSpline
210
0.0
220
0.0
230
1.0
 70
     8
 71
     3
 72
     8
 73
     4
 74
     0
 42
0.000000001
 43
0.00000001
 40
3.0
 40
3.0
 40
3.0
 40
3.0
 40
4.0
 40
4.0
 40
4.0
 40
4.0
 10
-79.33801107792087
 20
-130.3237907695386
 30
0.0
 10
-79.81550131229585
 20
-130.2803825664136
 30
0.0
 10
-80.27852214562918
 20
-130.2507547452331
 30
0.0
 10
-80.89932835222643
 20
-130.2507547452331
 30
0.0
  0
SPLINE
  5
245
330
F2
100
AcDbEntity
  8
レイヤー_1
 62
   250
100
AcDbSpline
210
0.0
220
0.0
230
1.0
 70
     8
 71
     3
 72
     8
 73
     4
 74
     0
 42
0.000000001
 43
0.00000001
 40
5.0
 40
5.0
 40
5.0
 40
5.0
 40
6.0
 40
6.0
 40
6.0
 40
6.0
 10
-82.51921224979587
 20
-130.2507547452331
 30
0.0
 10
-81.66620660743475
 20
-131.7693528355108
 30
0.0
 10
-80.42252713694864
 20
-132.9978738858581
 30
0.0
 10
-78.91908746680974
 20
-133.8508795282192
 30
0.0
  0
SPLINE
  5
246
330
F2
100
AcDbEntity
  8
レイヤー_1
 62
   250
100
AcDbSpline
210
0.0
220
0.0
230
1.0
 70
     8
 71
     3
 72
     8
 73
     4
 74
     0
 42
0.000000001
 43
0.00000001
 40
6.0
 40
6.0
 40
6.0
 40
6.0
 40
7.0
 40
7.0
 40
7.0
 40
7.0
 10
-78.91908746680974
 20
-133.8508795282192
 30
0.0
 10
-79.42551650326808
 20
-134.3421501445386
 30
0.0
 10
-79.61361871680977
 20
-134.6177577834275
 30
0.0
 10
-79.9312565206292
 20
-135.3543191983581
 30
0.0
  0
SPLINE
  5
247
330
F2
100
AcDbEntity
  8
レイヤー_1
 62
   250
100
AcDbSpline
210
0.0
220
0.0
230
1.0
 70
     8
 71
     3
 72
     8
 73
     4
 74
     0
 42
0.000000001
 43
0.00000001
 40
7.0
 40
7.0
 40
7.0
 40
7.0
 40
8.0
 40
8.0
 40
8.0
 40
8.0
 10
-79.9312565206292
 20
-135.3543191983581
 30
0.0
 10
-80.53828234528197
 20
-134.9064567851636
 30
0.0
 10
-80.98752279667086
 20
-134.4868441549552
 30
0.0
 10
-81.55045139910143
 20
-133.8364101271775
 30
0.0
  0
SPLINE
  5
248
330
F2
100
AcDbEntity
  8
レイヤー_1
 62
   250
100
AcDbSpline
210
0.0
220
0.0
230
1.0
 70
     8
 71
     3
 72
     8
 73
     4
 74
     0
 42
0.000000001
 43
0.00000001
 40
8.0
 40
8.0
 40
8.0
 40
8.0
 40
9.0
 40
9.0
 40
9.0
 40
9.0
 10
-81.55045139910143
 20
-133.8364101271775
 30
0.0
 10
-82.30148221507363
 20
-132.9682460646775
 30
0.0
 10
-82.60533963694863
 20
-132.5348530525247
 30
0.0
 10
-83.09798829146253
 20
-131.6246588250942
 30
0.0
  0
SPLINE
  5
249
330
F2
100
AcDbEntity
  8
レイヤー_1
 62
   250
100
AcDbSpline
210
0.0
220
0.0
230
1.0
 70
     8
 71
     3
 72
     8
 73
     4
 74
     0
 42
0.000000001
 43
0.00000001
 40
9.0
 40
9.0
 40
9.0
 40
9.0
 40
10.0
 40
10.0
 40
10.0
 40
10.0
 10
-83.09798829146253
 20
-131.6246588250942
 30
0.0
 10
-83.05389106924031
 20
-132.1159294414136
 30
0.0
 10
-83.04011068729586
 20
-132.6368278789136
 30
0.0
 10
-83.04011068729586
 20
-133.0557514900247
 30
0.0
  0
SPLINE
  5
24A
330
F2
100
AcDbEntity
  8
レイヤー_1
 62
   250
100
AcDbSpline
210
0.0
220
0.0
230
1.0
 70
     8
 71
     3
 72
     8
 73
     4
 74
     0
 42
0.000000001
 43
0.00000001
 40
11.0
 40
11.0
 40
11.0
 40
11.0
 40
12.0
 40
12.0
 40
12.0
 40
12.0
 10
-83.04011068729586
 20
-134.8775179830803
 30
0.0
 10
-83.04011068729586
 20
-135.5858296150247
 30
0.0
 10
-83.01048286611531
 20
-136.0915696323858
 30
0.0
 10
-82.95260526194865
 20
-136.5545904657192
 30
0.0
  0
SPLINE
  5
24B
330
F2
100
AcDbEntity
  8
レイヤー_1
 62
   250
100
AcDbSpline
210
0.0
220
0.0
230
1.0
 70
     8
 71
     3
 72
     8
 73
     4
 74
     0
 42
0.000000001
 43
0.00000001
 40
13.0
 40
13.0
 40
13.0
 40
13.0
 40
14.0
 40
14.0
 40
14.0
 40
14.0
 10
-84.61520834354587
 20
-136.5545904657192
 30
0.0
 10
-84.5573307393792
 20
-136.0771002313442
 30
0.0
 10
-84.52770291819863
 20
-135.5424214118997
 30
0.0
 10
-84.52770291819863
 20
-134.8775179830803
 30
0.0
  0
SPLINE
  5
24C
330
F2
100
AcDbEntity
  8
レイヤー_1
 62
   250
100
AcDbSpline
210
0.0
220
0.0
230
1.0
 70
     8
 71
     3
 72
     8
 73
     4
 74
     0
 42
0.000000001
 43
0.00000001
 40
15.0
 40
15.0
 40
15.0
 40
15.0
 40
16.0
 40
16.0
 40
16.0
 40
16.0
 10
-84.52770291819863
 20
-133.1570372973164
 30
0.0
 10
-84.52770291819863
 20
-132.752583087247
 30
0.0
 10
-84.5139225362542
 20
-132.2316846497469
 30
0.0
 10
-84.46982531403197
 20
-131.6680670282191
 30
0.0
  0
SPLINE
  5
24D
330
F2
100
AcDbEntity
  8
レイヤー_1
 62
   250
100
AcDbSpline
210
0.0
220
0.0
230
1.0
 70
     8
 71
     3
 72
     8
 73
     4
 74
     0
 42
0.000000001
 43
0.00000001
 40
16.0
 40
16.0
 40
16.0
 40
16.0
 40
17.0
 40
17.0
 40
17.0
 40
17.0
 10
-84.46982531403197
 20
-131.6680670282191
 30
0.0
 10
-85.41033638174031
 20
-133.3155116896775
 30
0.0
 10
-86.42250543555974
 20
-134.4289665507886
 30
0.0
 10
-87.89631728451808
 20
-135.4121968025247
 30
0.0
  0
SPLINE
  5
24E
330
F2
100
AcDbEntity
  8
レイヤー_1
 62
   250
100
AcDbSpline
210
0.0
220
0.0
230
1.0
 70
     8
 71
     3
 72
     8
 73
     4
 74
     0
 42
0.000000001
 43
0.00000001
 40
17.0
 40
17.0
 40
17.0
 40
17.0
 40
18.0
 40
18.0
 40
18.0
 40
18.0
 10
-87.89631728451808
 20
-135.4121968025247
 30
0.0
 10
-88.25805231055975
 20
-134.7335129917608
 30
0.0
 10
-88.47509332618475
 20
-134.4000277487052
 30
0.0
 10
-88.7927311300042
 20
-134.0382927226636
 30
0.0
  0
SPLINE
  5
24F
330
F2
100
AcDbEntity
  8
レイヤー_1
 62
   250
100
AcDbSpline
210
0.0
220
0.0
230
1.0
 70
     8
 71
     3
 72
     8
 73
     4
 74
     0
 42
0.000000001
 43
0.00000001
 40
18.0
 40
18.0
 40
18.0
 40
18.0
 40
19.0
 40
19.0
 40
19.0
 40
19.0
 10
-88.7927311300042
 20
-134.0382927226636
 30
0.0
 10
-87.2458832567403
 20
-133.1715066983581
 30
0.0
 10
-85.98911242340697
 20
-131.8699496237053
 30
0.0
 10
-85.10647895986531
 20
-130.2507547452331
 30
0.0
  0
SPLINE
  5
250
330
F2
100
AcDbEntity
  8
レイヤー_1
 62
   250
100
AcDbSpline
210
0.0
220
0.0
230
1.0
 70
     8
 71
     3
 72
     8
 73
     4
 74
     0
 42
0.000000001
 43
0.00000001
 40
20.0
 40
20.0
 40
20.0
 40
20.0
 40
21.0
 40
21.0
 40
21.0
 40
21.0
 10
-86.06077040951808
 20
-130.2507547452331
 30
0.0
 10
-86.69604601715699
 20
-130.2507547452331
 30
0.0
 10
-87.15975586958753
 20
-130.2803825664136
 30
0.0
 10
-87.6365570848653
 20
-130.3382601705803
 30
0.0
  0
SPLINE
  5
251
330
F2
100
AcDbEntity
  8
レイヤー_1
 62
   250
100
AcDbSpline
210
0.0
220
0.0
230
1.0
 70
     8
 71
     3
 72
     8
 73
     4
 74
     0
 42
0.000000001
 43
0.00000001
 40
22.0
 40
22.0
 40
22.0
 40
22.0
 40
23.0
 40
23.0
 40
23.0
 40
23.0
 10
-87.6365570848653
 20
-129.7457037469692
 30
0.0
 10
-87.89631728451808
 20
-130.1067497539136
 30
0.0
 10
-88.06995009701808
 20
-130.4388569587747
 30
0.0
 10
-88.25805231055975
 20
-130.9597553962747
 30
0.0
  0
SPLINE
  5
252
330
F2
100
AcDbEntity
  8
レイヤー_1
 62
   250
100
AcDbSpline
210
0.0
220
0.0
230
1.0
 70
     8
 71
     3
 72
     8
 73
     4
 74
     0
 42
0.000000001
 43
0.00000001
 40
23.0
 40
23.0
 40
23.0
 40
23.0
 40
24.0
 40
24.0
 40
24.0
 40
24.0
 10
-88.25805231055975
 20
-130.9597553962747
 30
0.0
 10
-88.63356771854586
 20
-130.3665099535664
 30
0.0
 10
-88.86507813521254
 20
-129.9041781393303
 30
0.0
 10
-89.1399967550042
 20
-129.1524583042608
 30
0.0
  0
SPLINE
  5
253
330
F2
100
AcDbEntity
  8
レイヤー_1
 62
   250
100
AcDbSpline
210
0.0
220
0.0
230
1.0
 70
     8
 71
     3
 72
     8
 73
     4
 74
     0
 42
0.000000001
 43
0.00000001
 40
24.0
 40
24.0
 40
24.0
 40
24.0
 40
25.0
 40
25.0
 40
25.0
 40
25.0
 10
-89.1399967550042
 20
-129.1524583042608
 30
0.0
 10
-89.11036893382364
 20
-129.6299485386358
 30
0.0
 10
-89.08211915083753
 20
-130.4243875577331
 30
0.0
 10
-89.08211915083753
 20
-131.0610412035664
 30
0.0
  0
SPLINE
  5
254
330
F2
100
AcDbEntity
  8
レイヤー_1
 62
   250
100
AcDbSpline
210
0.0
220
0.0
230
1.0
 70
     8
 71
     3
 72
     8
 73
     4
 74
     0
 42
0.000000001
 43
0.00000001
 40
26.0
 40
26.0
 40
26.0
 40
26.0
 40
27.0
 40
27.0
 40
27.0
 40
27.0
 10
-89.08211915083753
 20
-134.761762774747
 30
0.0
 10
-89.08211915083753
 20
-135.5279520108581
 30
0.0
 10
-89.05249132965699
 20
-136.0771002313442
 30
0.0
 10
-88.9946137254903
 20
-136.5401210646775
 30
0.0
  0
SPLINE
  5
255
330
F2
100
AcDbEntity
  8
レイヤー_1
 62
   250
100
AcDbSpline
210
0.0
220
0.0
230
1.0
 70
     8
 71
     3
 72
     8
 73
     4
 74
     0
 42
0.000000001
 43
0.00000001
 40
28.0
 40
28.0
 40
28.0
 40
28.0
 40
29.0
 40
29.0
 40
29.0
 40
29.0
 10
-90.6716862081292
 20
-136.5401210646775
 30
0.0
 10
-90.61380860396253
 20
-136.0633198493997
 30
0.0
 10
-90.58555882097642
 20
-135.5134826098164
 30
0.0
 10
-90.58555882097642
 20
-134.761762774747
 30
0.0
  0
SPLINE
  5
256
330
F2
100
AcDbEntity
  8
レイヤー_1
 62
   250
100
AcDbSpline
210
0.0
220
0.0
230
1.0
 70
     8
 71
     3
 72
     8
 73
     4
 74
     0
 42
0.000000001
 43
0.00000001
 40
30.0
 40
30.0
 40
30.0
 40
30.0
 40
31.0
 40
31.0
 40
31.0
 40
31.0
 10
-90.58555882097642
 20
-131.6535976271775
 30
0.0
 10
-90.58555882097642
 20
-131.0755106046081
 30
0.0
 10
-90.57177843903196
 20
-130.699995196622
 30
0.0
 10
-90.48427301368474
 20
-129.788422930997
 30
0.0
  0
SPLINE
  5
257
330
F2
100
AcDbEntity
  8
レイヤー_1
 62
   250
100
AcDbSpline
210
0.0
220
0.0
230
1.0
 70
     8
 71
     3
 72
     8
 73
     4
 74
     0
 42
0.000000001
 43
0.00000001
 40
31.0
 40
31.0
 40
31.0
 40
31.0
 40
32.0
 40
32.0
 40
32.0
 40
32.0
 10
-90.48427301368474
 20
-129.788422930997
 30
0.0
 10
-90.90319662479587
 20
-131.2195155959275
 30
0.0
 10
-91.33658963694864
 20
-132.2172152487053
 30
0.0
 10
-92.00149306576807
 20
-133.1997564813442
 30
0.0
  0
SPLINE
  5
258
330
F2
100
AcDbEntity
  8
レイヤー_1
 62
   250
100
AcDbSpline
210
0.0
220
0.0
230
1.0
 70
     8
 71
     3
 72
     8
 73
     4
 74
     0
 42
0.000000001
 43
0.00000001
 40
32.0
 40
32.0
 40
32.0
 40
32.0
 40
33.0
 40
33.0
 40
33.0
 40
33.0
 10
-92.00149306576807
 20
-133.1997564813442
 30
0.0
 10
-92.17512587826808
 20
-132.5210726705803
 30
0.0
 10
-92.36322809180976
 20
-132.0876796584275
 30
0.0
 10
-92.6684635518792
 20
-131.5957200230108
 30
0.0
  0
SPLINE
  5
259
330
F2
100
AcDbEntity
  8
レイヤー_1
 62
   250
100
AcDbSpline
210
0.0
220
0.0
230
1.0
 70
     8
 71
     3
 72
     8
 73
     4
 74
     0
 42
0.000000001
 43
0.00000001
 40
33.0
 40
33.0
 40
33.0
 40
33.0
 40
34.0
 40
34.0
 40
34.0
 40
34.0
 10
-92.6684635518792
 20
-131.5957200230108
 30
0.0
 10
-91.94361546160141
 20
-130.6848367764831
 30
0.0
 10
-91.1925846456292
 20
-128.9650451098164
 30
0.0
 10
-90.72956381229585
 20
-127.2294060039136
 30
0.0
  0
SPLINE
  5
25A
330
F2
100
AcDbEntity
  8
レイヤー_1
 62
   250
100
AcDbSpline
210
0.0
220
0.0
230
1.0
 70
     8
 71
     3
 72
     8
 73
     4
 74
     0
 42
0.000000001
 43
0.00000001
 40
35.0
 40
35.0
 40
35.0
 40
35.0
 40
36.0
 40
36.0
 40
36.0
 40
36.0
 10
-91.30833985396254
 20
-127.2294060039136
 30
0.0
 10
-91.74173286611531
 20
-127.2294060039136
 30
0.0
 10
-92.0173405050042
 20
-127.2438754049553
 30
0.0
 10
-92.27710070465697
 20
-127.3017530091219
 30
0.0
  0
SPLINE
  5
25B
330
F2
100
AcDbEntity
  8
レイヤー_1
 62
   250
100
AcDbSpline
210
0.0
220
0.0
230
1.0
 70
     8
 71
     3
 72
     8
 73
     4
 74
     0
 42
0.000000001
 43
0.00000001
 40
37.0
 40
37.0
 40
37.0
 40
37.0
 40
38.0
 40
38.0
 40
38.0
 40
38.0
 10
-92.27710070465697
 20
-125.7404357348164
 30
0.0
 10
-92.03112088694863
 20
-125.7983133389831
 30
0.0
 10
-91.77136068729585
 20
-125.8127827400247
 30
0.0
 10
-91.30833985396254
 20
-125.8127827400247
 30
0.0
  0
SPLINE
  5
25C
330
F2
100
AcDbEntity
  8
レイヤー_1
 62
   250
100
AcDbSpline
210
0.0
220
0.0
230
1.0
 70
     8
 71
     3
 72
     8
 73
     4
 74
     0
 42
0.000000001
 43
0.00000001
 40
40.0
 40
40.0
 40
40.0
 40
40.0
 40
41.0
 40
41.0
 40
41.0
 40
41.0
 10
-90.58555882097642
 20
-124.6421392938442
 30
0.0
 10
-90.58555882097642
 20
-123.8911084778719
 30
0.0
 10
-90.61380860396253
 20
-123.5149040507886
 30
0.0
 10
-90.6716862081292
 20
-123.1531690247469
 30
0.0
  0
SPLINE
  5
25D
330
F2
100
AcDbEntity
  8
レイヤー_1
 62
   250
100
AcDbSpline
210
0.0
220
0.0
230
1.0
 70
     8
 71
     3
 72
     8
 73
     4
 74
     0
 42
0.000000001
 43
0.00000001
 40
42.0
 40
42.0
 40
42.0
 40
42.0
 40
43.0
 40
43.0
 40
43.0
 40
43.0
 10
-89.01046116472642
 20
-123.1531690247469
 30
0.0
 10
-89.05249132965699
 20
-123.5293734518303
 30
0.0
 10
-89.08211915083753
 20
-123.962766463983
 30
0.0
 10
-89.08211915083753
 20
-124.6421392938442
 30
0.0
  0
SPLINE
  5
25E
330
F2
100
AcDbEntity
  8
レイヤー_1
 62
   250
100
AcDbSpline
210
0.0
220
0.0
230
1.0
 70
     8
 71
     3
 72
     8
 73
     4
 74
     0
 42
0.000000001
 43
0.00000001
 40
45.0
 40
45.0
 40
45.0
 40
45.0
 40
46.0
 40
46.0
 40
46.0
 40
46.0
 10
-88.64872613868475
 20
-125.8127827400247
 30
0.0
 10
-88.2876801317403
 20
-125.8127827400247
 30
0.0
 10
-88.1140473192403
 20
-125.7983133389831
 30
0.0
 10
-87.868067501532
 20
-125.7549051358581
 30
0.0
  0
SPLINE
  5
25F
330
F2
100
AcDbEntity
  8
レイヤー_1
 62
   250
100
AcDbSpline
210
0.0
220
0.0
230
1.0
 70
     8
 71
     3
 72
     8
 73
     4
 74
     0
 42
0.000000001
 43
0.00000001
 40
47.0
 40
47.0
 40
47.0
 40
47.0
 40
48.0
 40
48.0
 40
48.0
 40
48.0
 10
-87.868067501532
 20
-127.1859978007886
 30
0.0
 10
-87.28929145986531
 20
-126.1593593459275
 30
0.0
 10
-86.8118012254903
 20
-124.6276698928025
 30
0.0
 10
-86.76977106055975
 20
-123.6733784431497
 30
0.0
  0
SPLINE
  5
260
330
F2
100
AcDbEntity
  8
レイヤー_1
 62
   250
100
AcDbSpline
210
0.0
220
0.0
230
1.0
 70
     8
 71
     3
 72
     8
 73
     4
 74
     0
 42
0.000000001
 43
0.00000001
 40
49.0
 40
49.0
 40
49.0
 40
49.0
 40
50.0
 40
50.0
 40
50.0
 40
50.0
 10
-85.29458117340698
 20
-124.0488938511358
 30
0.0
 10
-85.35245877757364
 20
-124.2087462816914
 30
0.0
 10
-85.39586698069863
 20
-124.3672206740525
 30
0.0
 10
-85.51162218903198
 20
-124.8295524882886
 30
0.0
  0
SPLINE
  5
261
330
F2
100
AcDbEntity
  8
レイヤー_1
 62
   250
100
AcDbSpline
210
0.0
220
0.0
230
1.0
 70
     8
 71
     3
 72
     8
 73
     4
 74
     0
 42
0.000000001
 43
0.00000001
 40
50.0
 40
50.0
 40
50.0
 40
50.0
 40
51.0
 40
51.0
 40
51.0
 40
51.0
 10
-85.51162218903198
 20
-124.8295524882886
 30
0.0
 10
-85.59774957618475
 20
-125.1630377313442
 30
0.0
 10
-85.62737739736531
 20
-125.2636345195386
 30
0.0
 10
-85.69972440257364
 20
-125.5385531393303
 30
0.0
  0
SPLINE
  5
262
330
F2
100
AcDbEntity
  8
レイヤー_1
 62
   250
100
AcDbSpline
210
0.0
220
0.0
230
1.0
 70
     8
 71
     3
 72
     8
 73
     4
 74
     0
 42
0.000000001
 43
0.00000001
 40
53.0
 40
53.0
 40
53.0
 40
53.0
 40
54.0
 40
54.0
 40
54.0
 40
54.0
 10
-84.52770291819863
 20
-124.5408534865525
 30
0.0
 10
-84.52770291819863
 20
-123.9331386428025
 30
0.0
 10
-84.5573307393792
 20
-123.5438428528719
 30
0.0
 10
-84.61520834354587
 20
-123.1683274448858
 30
0.0
  0
SPLINE
  5
263
330
F2
100
AcDbEntity
  8
レイヤー_1
 62
   250
100
AcDbSpline
210
0.0
220
0.0
230
1.0
 70
     8
 71
     3
 72
     8
 73
     4
 74
     0
 42
0.000000001
 43
0.00000001
 40
55.0
 40
55.0
 40
55.0
 40
55.0
 40
56.0
 40
56.0
 40
56.0
 40
56.0
 10
-82.93813586090698
 20
-123.1683274448858
 30
0.0
 10
-82.99601346507366
 20
-123.5293734518303
 30
0.0
 10
-83.02426324805975
 20
-123.9331386428025
 30
0.0
 10
-83.02426324805975
 20
-124.5408534865525
 30
0.0
  0
SPLINE
  5
264
330
F2
100
AcDbEntity
  8
レイヤー_1
 62
   250
100
AcDbSpline
210
0.0
220
0.0
230
1.0
 70
     8
 71
     3
 72
     8
 73
     4
 74
     0
 42
0.000000001
 43
0.00000001
 40
58.0
 40
58.0
 40
58.0
 40
58.0
 40
59.0
 40
59.0
 40
59.0
 40
59.0
 10
-81.31894098243475
 20
-125.5385531393303
 30
0.0
 10
-80.6099403313931
 20
-125.5385531393303
 30
0.0
 10
-80.19101672028197
 20
-125.5096143372469
 30
0.0
 10
-79.77140409007364
 20
-125.4517367330803
 30
0.0
  0
SPLINE
  5
265
330
F2
100
AcDbEntity
  8
レイヤー_1
 62
   250
100
AcDbSpline
210
0.0
220
0.0
230
1.0
 70
     8
 71
     3
 72
     8
 73
     4
 74
     0
 42
0.000000001
 43
0.00000001
 40
60.0
 40
60.0
 40
60.0
 40
60.0
 40
61.0
 40
61.0
 40
61.0
 40
61.0
 10
-79.77140409007364
 20
-127.0419928094692
 30
0.0
 10
-80.19101672028197
 20
-126.9841152053025
 30
0.0
 10
-80.66781793555975
 20
-126.9551764032191
 30
0.0
 10
-81.31894098243475
 20
-126.9551764032191
 30
0.0
  0
ENDBLK
  5
F4
330
F2
100
AcDbEntity
  8
0
100
AcDbBlockEnd
  0
BLOCK
  5
27A
330
279
100
AcDbEntity
  8
0
100
AcDbBlockBegin
  2
SW_TABLEANNOTATION_0
 70
     0
 10
0.0
 20
0.0
 30
0.0
  3
SW_TABLEANNOTATION_0
  1

  0
LINE
  5
27C
330
279
100
AcDbEntity
  8
AM_BOR
 62
     0
100
AcDbLine
 10
0.0
 20
0.0
 30
0.0
 11
0.0
 21
-57.6171417665
 31
0.0
  0
LINE
  5
27D
330
279
100
AcDbEntity
  8
AM_BOR
 62
     0
100
AcDbLine
 10
0.0
 20
-57.6171417665
 30
0.0
 11
90.2396636014
 21
-57.6171417665
 31
0.0
  0
LINE
  5
27E
330
279
100
AcDbEntity
  8
AM_BOR
 62
     0
100
AcDbLine
 10
90.2396636014
 20
-57.6171417665
 30
0.0
 11
90.2396636014
 21
0.0
 31
0.0
  0
LINE
  5
27F
330
279
100
AcDbEntity
  8
AM_BOR
 62
     0
100
AcDbLine
 10
90.2396636014
 20
0.0
 30
0.0
 11
0.0
 21
0.0
 31
0.0
  0
LINE
  5
280
330
279
100
AcDbEntity
  8
AM_BOR
 62
     0
100
AcDbLine
 10
6.7405358628
 20
0.0
 30
0.0
 11
6.7405358628
 21
-57.6171417665
 31
0.0
  0
LINE
  5
281
330
279
100
AcDbEntity
  8
AM_BOR
 62
     0
100
AcDbLine
 10
34.3728335385
 20
0.0
 30
0.0
 11
34.3728335385
 21
-57.6171417665
 31
0.0
  0
LINE
  5
282
330
279
100
AcDbEntity
  8
AM_BOR
 62
     0
100
AcDbLine
 10
44.3440542177
 20
0.0
 30
0.0
 11
44.3440542177
 21
-57.6171417665
 31
0.0
  0
LINE
  5
283
330
279
100
AcDbEntity
  8
AM_BOR
 62
     0
100
AcDbLine
 10
66.3764982116
 20
0.0
 30
0.0
 11
66.3764982116
 21
-57.6171417665
 31
0.0
  0
LINE
  5
284
330
279
100
AcDbEntity
  8
AM_BOR
 62
     0
100
AcDbLine
 10
0.0
 20
-3.8222221881
 30
0.0
 11
90.2396636014
 21
-3.8222221881
 31
0.0
  0
LINE
  5
285
330
279
100
AcDbEntity
  8
AM_BOR
 62
     0
100
AcDbLine
 10
0.0
 20
-7.6444443762
 30
0.0
 11
90.2396636014
 21
-7.6444443762
 31
0.0
  0
LINE
  5
286
330
279
100
AcDbEntity
  8
AM_BOR
 62
     0
100
AcDbLine
 10
0.0
 20
-11.4666665643
 30
0.0
 11
90.2396636014
 21
-11.4666665643
 31
0.0
  0
LINE
  5
287
330
279
100
AcDbEntity
  8
AM_BOR
 62
     0
100
AcDbLine
 10
0.0
 20
-15.2888887525
 30
0.0
 11
90.2396636014
 21
-15.2888887525
 31
0.0
  0
LINE
  5
288
330
279
100
AcDbEntity
  8
AM_BOR
 62
     0
100
AcDbLine
 10
0.0
 20
-19.1111109406
 30
0.0
 11
90.2396636014
 21
-19.1111109406
 31
0.0
  0
LINE
  5
289
330
279
100
AcDbEntity
  8
AM_BOR
 62
     0
100
AcDbLine
 10
0.0
 20
-23.2171420734
 30
0.0
 11
90.2396636014
 21
-23.2171420734
 31
0.0
  0
LINE
  5
28A
330
279
100
AcDbEntity
  8
AM_BOR
 62
     0
100
AcDbLine
 10
0.0
 20
-27.0393642615
 30
0.0
 11
90.2396636014
 21
-27.0393642615
 31
0.0
  0
LINE
  5
28B
330
279
100
AcDbEntity
  8
AM_BOR
 62
     0
100
AcDbLine
 10
0.0
 20
-30.8615864497
 30
0.0
 11
90.2396636014
 21
-30.8615864497
 31
0.0
  0
LINE
  5
28C
330
279
100
AcDbEntity
  8
AM_BOR
 62
     0
100
AcDbLine
 10
0.0
 20
-34.6838086378
 30
0.0
 11
90.2396636014
 21
-34.6838086378
 31
0.0
  0
LINE
  5
28D
330
279
100
AcDbEntity
  8
AM_BOR
 62
     0
100
AcDbLine
 10
0.0
 20
-38.5060308259
 30
0.0
 11
90.2396636014
 21
-38.5060308259
 31
0.0
  0
LINE
  5
28E
330
279
100
AcDbEntity
  8
AM_BOR
 62
     0
100
AcDbLine
 10
0.0
 20
-42.328253014
 30
0.0
 11
90.2396636014
 21
-42.328253014
 31
0.0
  0
LINE
  5
28F
330
279
100
AcDbEntity
  8
AM_BOR
 62
     0
100
AcDbLine
 10
0.0
 20
-46.1504752021
 30
0.0
 11
90.2396636014
 21
-46.1504752021
 31
0.0
  0
LINE
  5
290
330
279
100
AcDbEntity
  8
AM_BOR
 62
     0
100
AcDbLine
 10
0.0
 20
-49.9726973902
 30
0.0
 11
90.2396636014
 21
-49.9726973902
 31
0.0
  0
LINE
  5
291
330
279
100
AcDbEntity
  8
AM_BOR
 62
     0
100
AcDbLine
 10
0.0
 20
-53.7949195783
 30
0.0
 11
90.2396636014
 21
-53.7949195783
 31
0.0
  0
MTEXT
  5
292
330
279
100
AcDbEntity
  8
AM_BOR
 62
     0
100
AcDbMText
 10
1.9591568373
 20
-0.7691311204
 30
0.0
 40
2.1166666667
 41
0.0
 71
     1
 72
     1
  1
№
  7
SLDTEXTSTYLE0
 73
     1
 44
1.0
  0
MTEXT
  5
293
330
279
100
AcDbEntity
  8
AM_BOR
 62
     0
100
AcDbMText
 10
14.2066847774
 20
-0.7691311204
 30
0.0
 40
2.1166666667
 41
0.0
 71
     1
 72
     1
  1
PART NAME
  7
SLDTEXTSTYLE0
 73
     1
 44
1.0
  0
MTEXT
  5
294
330
279
100
AcDbEntity
  8
AM_BOR
 62
     0
100
AcDbMText
 10
36.53622169
 20
-0.7691311204
 30
0.0
 40
2.1166666667
 41
0.0
 71
     1
 72
     1
  1
Q'TY
  7
SLDTEXTSTYLE0
 73
     1
 44
1.0
  0
MTEXT
  5
295
330
279
100
AcDbEntity
  8
AM_BOR
 62
     0
100
AcDbMText
 10
52.5380540265
 20
-0.7691311204
 30
0.0
 40
2.1166666667
 41
0.0
 71
     1
 72
     1
  1
SPEC
  7
SLDTEXTSTYLE0
 73
     1
 44
1.0
  0
MTEXT
  5
296
330
279
100
AcDbEntity
  8
AM_BOR
 62
     0
100
AcDbMText
 10
73.3691920773
 20
-0.7691311204
 30
0.0
 40
2.1166666667
 41
0.0
 71
     1
 72
     1
  1
REMARKS
  7
SLDTEXTSTYLE0
 73
     1
 44
1.0
  0
MTEXT
  5
297
330
279
100
AcDbEntity
  8
AM_BOR
 62
     0
100
AcDbMText
 10
2.6647123844
 20
-4.5913533086
 30
0.0
 40
2.1166666667
 41
0.0
 71
     1
 72
     1
  1
1
  7
SLDTEXTSTYLE0
 73
     1
 44
1.0
  0
MTEXT
  5
298
330
279
100
AcDbEntity
  8
AM_BOR
 62
     0
100
AcDbMText
 10
11.3844630549
 20
-4.5913533086
 30
0.0
 40
2.1166666667
 41
0.0
 71
     1
 72
     1
  1
4ピンコネクタ
  7
SLDTEXTSTYLE0
 73
     1
 44
1.0
  0
MTEXT
  5
299
330
279
100
AcDbEntity
  8
AM_BOR
 62
     0
100
AcDbMText
 10
38.6528883311
 20
-4.5913533086
 30
0.0
 40
2.1166666667
 41
0.0
 71
     1
 72
     1
  1
1
  7
SLDTEXTSTYLE0
 73
     1
 44
1.0
  0
MTEXT
  5
29A
330
279
100
AcDbEntity
  8
AM_BOR
 62
     0
100
AcDbMText
 10
2.6647123844
 20
-8.4135754967
 30
0.0
 40
2.1166666667
 41
0.0
 71
     1
 72
     1
  1
2
  7
SLDTEXTSTYLE0
 73
     1
 44
1.0
  0
MTEXT
  5
29B
330
279
100
AcDbEntity
  8
AM_BOR
 62
     0
100
AcDbMText
 10
16.3233514185
 20
-8.4135754967
 30
0.0
 40
2.1166666667
 41
0.0
 71
     1
 72
     1
  1
カバー
  7
SLDTEXTSTYLE0
 73
     1
 44
1.0
  0
MTEXT
  5
29C
330
279
100
AcDbEntity
  8
AM_BOR
 62
     0
100
AcDbMText
 10
38.6528883311
 20
-8.4135754967
 30
0.0
 40
2.1166666667
 41
0.0
 71
     1
 72
     1
  1
2
  7
SLDTEXTSTYLE0
 73
     1
 44
1.0
  0
MTEXT
  5
29D
330
279
100
AcDbEntity
  8
AM_BOR
 62
     0
100
AcDbMText
 10
2.6647123844
 20
-12.2357976848
 30
0.0
 40
2.1166666667
 41
0.0
 71
     1
 72
     1
  1
3
  7
SLDTEXTSTYLE0
 73
     1
 44
1.0
  0
MTEXT
  5
29E
330
279
100
AcDbEntity
  8
AM_BOR
 62
     0
100
AcDbMText
 10
12.0900181363
 20
-12.2357976848
 30
0.0
 40
2.1166666667
 41
0.0
 71
     1
 72
     1
  1
保護チューブ
  7
SLDTEXTSTYLE0
 73
     1
 44
1.0
  0
MTEXT
  5
29F
330
279
100
AcDbEntity
  8
AM_BOR
 62
     0
100
AcDbMText
 10
38.6528883311
 20
-12.2357976848
 30
0.0
 40
2.1166666667
 41
0.0
 71
     1
 72
     1
  1
1
  7
SLDTEXTSTYLE0
 73
     1
 44
1.0
  0
ENDBLK
  5
27B
330
279
100
AcDbEntity
  8
0
100
AcDbBlockEnd
  0
BLOCK
  5
2A2
330
2A1
100
AcDbEntity
  8
0
100
AcDbBlockBegin
  2
SW_BROKEN_VIEW_0
 70
     0
 10
0.0
 20
0.0
 30
0.0
  3
SW_BROKEN_VIEW_0
  1

  0
ENDBLK
  5
2A3
330
2A1
100
AcDbEntity
  8
0
100
AcDbBlockEnd
  0
BLOCK
  5
301
330
300
100
AcDbEntity
  8
0
100
AcDbBlockBegin
  2
_OPEN30
 70
     0
 10
0.0
 20
0.0
 30
0.0
  3
_OPEN30
  1

  0
LINE
  5
303
330
300
100
AcDbEntity
  8
0
  6
ByBlock
 62
     0
370
    -2
100
AcDbLine
 10
-1.0
 20
0.267949
 30
0.0
 11
0.0
 21
0.0
 31
0.0
  0
LINE
  5
304
330
300
100
AcDbEntity
  8
0
  6
ByBlock
 62
     0
370
    -2
100
AcDbLine
 10
0.0
 20
0.0
 30
0.0
 11
-1.0
 21
-0.267949
 31
0.0
  0
LINE
  5
305
330
300
100
AcDbEntity
  8
0
  6
ByBlock
 62
     0
370
    -2
100
AcDbLine
 10
0.0
 20
0.0
 30
0.0
 11
-1.0
 21
0.0
 31
0.0
  0
ENDBLK
  5
302
330
300
100
AcDbEntity
  8
0
100
AcDbBlockEnd
  0
BLOCK
  5
307
330
306
100
AcDbEntity
  8
0
100
AcDbBlockBegin
  2
_D
 70
     0
 10
0.0
 20
0.0
 30
0.0
  3
_D
  1

  0
INSERT
  5
309
330
306
100
AcDbEntity
  8
AM_BOR
100
AcDbBlockReference
  2
_OPEN30
 10
70.266396935
 20
187.8740203091
 30
-0.094314078
 41
3.0
 42
3.0
 50
180.0
  0
INSERT
  5
30A
330
306
100
AcDbEntity
  8
AM_BOR
100
AcDbBlockReference
  2
_OPEN30
 10
94.866396935
 20
187.8740203091
 30
-0.094314078
 41
3.0
 42
3.0
 50
0.0
  0
LINE
  5
30B
330
306
100
AcDbEntity
  8
AM_BOR
100
AcDbLine
 10
70.266396935
 20
171.1285009347
 30
0.0
 11
70.266396935
 21
188.8740203091
 31
0.0
  0
LINE
  5
30C
330
306
100
AcDbEntity
  8
AM_BOR
100
AcDbLine
 10
94.866396935
 20
172.0535009347
 30
0.0
 11
94.866396935
 21
188.8740203091
 31
0.0
  0
LINE
  5
30D
330
306
100
AcDbEntity
  8
AM_BOR
100
AcDbLine
 10
70.266396935
 20
187.8740203091
 30
0.0
 11
94.866396935
 21
187.8740203091
 31
0.0
  0
MTEXT
  5
30E
330
306
100
AcDbEntity
  8
AM_BOR
100
AcDbMText
 10
78.9621839263
 20
191.9668102665
 30
0.0
 40
3.175
 41
0.0
 71
     1
 72
     1
  1
24.6
  7
SLDTEXTSTYLE0
 73
     1
 44
1.0
  0
ENDBLK
  5
308
330
306
100
AcDbEntity
  8
0
100
AcDbBlockEnd
  0
BLOCK
  5
311
330
310
100
AcDbEntity
  8
0
100
AcDbBlockBegin
  2
_D_1
 70
     0
 10
0.0
 20
0.0
 30
0.0
  3
_D_1
  1

  0
INSERT
  5
313
330
310
100
AcDbEntity
  8
AM_BOR
100
AcDbBlockReference
  2
_OPEN30
 10
70.266396935
 20
132.2421290907
 30
-0.094314078
 41
3.0
 42
3.0
 50
180.0
  0
INSERT
  5
314
330
310
100
AcDbEntity
  8
AM_BOR
100
AcDbBlockReference
  2
_OPEN30
 10
390.7002226491
 20
132.2421290907
 30
-0.094314078
 41
3.0
 42
3.0
 50
0.0
  0
LINE
  5
315
330
310
100
AcDbEntity
  8
AM_BOR
100
AcDbLine
 10
70.266396935
 20
152.1535009347
 30
0.0
 11
70.266396935
 21
131.2421290907
 31
0.0
  0
LINE
  5
316
330
310
100
AcDbEntity
  8
AM_BOR
100
AcDbLine
 10
390.7002226491
 20
152.6535009347
 30
0.0
 11
390.7002226491
 21
131.2421290907
 31
0.0
  0
LINE
  5
317
330
310
100
AcDbEntity
  8
AM_BOR
100
AcDbLine
 10
70.266396935
 20
132.2421290907
 30
0.0
 11
390.7002226491
 21
132.2421290907
 31
0.0
  0
MTEXT
  5
318
330
310
100
AcDbEntity
  8
AM_BOR
100
AcDbMText
 10
227.3083098304
 20
136.334919048
 30
0.0
 40
3.175
 41
0.0
 71
     1
 72
     1
  1
650
  7
SLDTEXTSTYLE0
 73
     1
 44
1.0
  0
ENDBLK
  5
312
330
310
100
AcDbEntity
  8
0
100
AcDbBlockEnd
  0
BLOCK
  5
31A
330
319
100
AcDbEntity
  8
0
100
AcDbBlockBegin
  2
SW_NOTE_0
 70
     0
 10
0.0
 20
0.0
 30
0.0
  3
SW_NOTE_0
  1

  0
CIRCLE
  5
31C
330
319
100
AcDbEntity
  8
AM_BOR
 62
     0
100
AcDbCircle
 10
1.4319809069
 20
1.3723150358
 30
0.0
 40
1.983385458066177
  0
MTEXT
  5
31D
330
319
100
AcDbEntity
  8
AM_BOR
 62
     0
100
AcDbMText
 10
1.3217378599
 20
2.650934512
 30
0.0
 40
2.1166666667
 41
0.0
 71
     2
 72
     1
  1
1
  7
SLDTEXTSTYLE0
 73
     1
 44
1.0
  0
ENDBLK
  5
31B
330
319
100
AcDbEntity
  8
0
100
AcDbBlockEnd
  0
BLOCK
  5
321
330
320
100
AcDbEntity
  8
0
100
AcDbBlockBegin
  2
_DOT
 70
     0
 10
0.0
 20
0.0
 30
0.0
  3
_DOT
  1

  0
POLYLINE
  5
323
330
320
100
AcDbEntity
  8
0
  6
ByBlock
 62
     0
100
AcDb2dPolyline
 66
     1
 10
0.0
 20
0.0
 30
0.0
 70
     1
 40
0.5
 41
0.5
  0
VERTEX
  5
325
330
323
100
AcDbEntity
  8
0
  6
ByBlock
 62
     0
100
AcDbVertex
100
AcDb2dVertex
 10
-0.25
 20
0.0
 30
0.0
 42
1.0
  0
VERTEX
  5
326
330
323
100
AcDbEntity
  8
0
  6
ByBlock
 62
     0
100
AcDbVertex
100
AcDb2dVertex
 10
0.25
 20
0.0
 30
0.0
 42
1.0
  0
SEQEND
  5
327
330
323
100
AcDbEntity
  8
0
  6
ByBlock
 62
     0
  0
LINE
  5
324
330
320
100
AcDbEntity
  8
0
  6
ByBlock
 62
     0
370
    -2
100
AcDbLine
 10
-0.5
 20
0.0
 30
0.0
 11
-1.0
 21
0.0
 31
0.0
  0
ENDBLK
  5
322
330
320
100
AcDbEntity
  8
0
100
AcDbBlockEnd
  0
BLOCK
  5
32A
330
329
100
AcDbEntity
  8
0
100
AcDbBlockBegin
  2
SW_NOTE_1
 70
     0
 10
0.0
 20
0.0
 30
0.0
  3
SW_NOTE_1
  1

  0
CIRCLE
  5
32C
330
329
100
AcDbEntity
  8
AM_BOR
 62
     0
100
AcDbCircle
 10
1.4319809069
 20
1.3723150358
 30
0.0
 40
1.983385458066216
  0
MTEXT
  5
32D
330
329
100
AcDbEntity
  8
AM_BOR
 62
     0
100
AcDbMText
 10
1.3217378599
 20
2.650934512
 30
0.0
 40
2.1166666667
 41
0.0
 71
     2
 72
     1
  1
3
  7
SLDTEXTSTYLE0
 73
     1
 44
1.0
  0
ENDBLK
  5
32B
330
329
100
AcDbEntity
  8
0
100
AcDbBlockEnd
  0
BLOCK
  5
331
330
330
100
AcDbEntity
  8
0
100
AcDbBlockBegin
  2
SW_NOTE_2
 70
     0
 10
0.0
 20
0.0
 30
0.0
  3
SW_NOTE_2
  1

  0
CIRCLE
  5
333
330
330
100
AcDbEntity
  8
AM_BOR
 62
     0
100
AcDbCircle
 10
-1.4319809069
 20
1.3723150358
 30
0.0
 40
1.983385458066176
  0
MTEXT
  5
334
330
330
100
AcDbEntity
  8
AM_BOR
 62
     0
100
AcDbMText
 10
-1.542223954
 20
2.650934512
 30
0.0
 40
2.1166666667
 41
0.0
 71
     2
 72
     1
  1
2
  7
SLDTEXTSTYLE0
 73
     1
 44
1.0
  0
ENDBLK
  5
332
330
330
100
AcDbEntity
  8
0
100
AcDbBlockEnd
  0
BLOCK
  5
338
330
337
100
AcDbEntity
  8
0
100
AcDbBlockBegin
  2
SW_NOTE_3
 70
     0
 10
0.0
 20
0.0
 30
0.0
  3
SW_NOTE_3
  1

  0
MTEXT
  5
33A
330
337
100
AcDbEntity
  8
AM_BOR
 62
     0
100
AcDbMText
 10
-4.6720347481
 20
1.2943351192
 30
0.0
 40
3.175
 41
0.0
 71
     1
 72
     1
  1
青
  7
SLDTEXTSTYLE0
 73
     1
 44
1.0
  0
ENDBLK
  5
339
330
337
100
AcDbEntity
  8
0
100
AcDbBlockEnd
  0
BLOCK
  5
33E
330
33D
100
AcDbEntity
  8
0
100
AcDbBlockBegin
  2
SW_NOTE_4
 70
     0
 10
0.0
 20
0.0
 30
0.0
  3
SW_NOTE_4
  1

  0
MTEXT
  5
340
330
33D
100
AcDbEntity
  8
AM_BOR
 62
     0
100
AcDbMText
 10
-4.6720347481
 20
1.2881053479
 30
0.0
 40
3.175
 41
0.0
 71
     1
 72
     1
  1
赤
  7
SLDTEXTSTYLE0
 73
     1
 44
1.0
  0
ENDBLK
  5
33F
330
33D
100
AcDbEntity
  8
0
100
AcDbBlockEnd
  0
BLOCK
  5
392
330
391
100
AcDbEntity
  8
0
100
AcDbBlockBegin
  2
SW_NOTE_5
 70
     0
 10
0.0
 20
0.0
 30
0.0
  3
SW_NOTE_5
  1

  0
MTEXT
  5
394
330
391
100
AcDbEntity
  8
AM_BOR
 62
     0
100
AcDbMText
 10
0.5669933348
 20
1.1929622322
 30
0.0
 40
3.175
 41
0.0
 71
     1
 72
     1
  1
赤
  7
SLDTEXTSTYLE0
 73
     1
 44
1.0
  0
ENDBLK
  5
393
330
391
100
AcDbEntity
  8
0
100
AcDbBlockEnd
  0
BLOCK
  5
398
330
397
100
AcDbEntity
  8
0
100
AcDbBlockBegin
  2
SW_NOTE_6
 70
     0
 10
0.0
 20
0.0
 30
0.0
  3
SW_NOTE_6
  1

  0
MTEXT
  5
39A
330
397
100
AcDbEntity
  8
AM_BOR
 62
     0
100
AcDbMText
 10
0.5485143523
 20
1.2107894763
 30
0.0
 40
3.175
 41
0.0
 71
     1
 72
     1
  1
青
  7
SLDTEXTSTYLE0
 73
     1
 44
1.0
  0
ENDBLK
  5
399
330
397
100
AcDbEntity
  8
0
100
AcDbBlockEnd
  0
ENDSEC
  0
SECTION
  2
ENTITIES
  0
INSERT
  5
266
330
1F
100
AcDbEntity
  8
AM_BOR
100
AcDbBlockReference
  2
tjmlogo_0
 10
275.1685827768
 20
60.2534020738
 30
0.0
 41
0.38
 42
0.38
 43
0.38
  0
INSERT
  5
267
330
1F
100
AcDbEntity
  8
AM_0
100
AcDbBlockReference
  2
様式_0
 10
9.7956379889
 20
0.3655621812
 30
0.0
  0
MTEXT
  5
268
330
1F
100
AcDbEntity
  8
AM_BOR
100
AcDbMText
 10
335.6898517745
 20
285.281827817
 30
0.0
 40
3.175
 41
0.0
 71
     1
 72
     1
  1
新規作成
  7
SLDTEXTSTYLE0
 73
     1
 44
1.0
  0
MTEXT
  5
269
330
1F
100
AcDbEntity
  8
AM_BOR
100
AcDbMText
 10
382.8776718407
 20
285.281827817
 30
0.0
 40
3.175
 41
0.0
 71
     1
 72
     1
  1
大澤
  7
SLDTEXTSTYLE0
 73
     1
 44
1.0
  0
MTEXT
  5
26A
330
1F
100
AcDbEntity
  8
AM_BOR
100
AcDbMText
 10
392.7592639415
 20
285.1767044967
 30
0.0
 40
3.175
 41
0.0
 71
     1
 72
     1
  1
白川
  7
SLDTEXTSTYLE0
 73
     1
 44
1.0
  0
MTEXT
  5
26B
330
1F
100
AcDbEntity
  8
AM_BOR
100
AcDbMText
 10
402.7459793626
 20
285.1767044967
 30
0.0
 40
3.175
 41
0.0
 71
     1
 72
     1
  1
佐瀬
  7
SLDTEXTSTYLE0
 73
     1
 44
1.0
  0
MTEXT
  5
26C
330
1F
100
AcDbEntity
  8
AM_BOR
100
AcDbMText
 10
313.5274759134
 20
285.281827817
 30
0.0
 40
3.175
 41
0.0
 71
     1
 72
     1
  1
20200227
  7
SLDTEXTSTYLE0
 73
     1
 44
1.0
  0
MTEXT
  5
26D
330
1F
100
AcDbEntity
  8
AM_BOR
100
AcDbMText
 10
301.5147754902
 20
13.4349592882
 30
0.0
 40
3.175
 41
0.0
 71
     1
 72
     1
  1
1：1
  7
SLDTEXTSTYLE0
 73
     1
 44
1.0
  0
MTEXT
  5
26E
330
1F
100
AcDbEntity
  8
AM_BOR
100
AcDbMText
 10
275.4945515996
 20
30.627925852
 30
0.0
 40
2.1166666667
 41
0.0
 71
     1
 72
     1
  1
20200227
  7
SLDTEXTSTYLE0
 73
     1
 44
1.0
  0
MTEXT
  5
26F
330
1F
100
AcDbEntity
  8
AM_BOR
100
AcDbMText
 10
264.6554709856
 20
23.3417122468
 30
0.0
 40
3.175
 41
0.0
 71
     1
 72
     1
  1
白川
  7
SLDTEXTSTYLE0
 73
     1
 44
1.0
  0
MTEXT
  5
270
330
1F
100
AcDbEntity
  8
AM_BOR
100
AcDbMText
 10
276.8840068743
 20
23.5665871317
 30
0.0
 40
3.175
 41
0.0
 71
     1
 72
     1
  1
大澤
  7
SLDTEXTSTYLE0
 73
     1
 44
1.0
  0
MTEXT
  5
271
330
1F
100
AcDbEntity
  8
AM_BOR
100
AcDbMText
 10
297.0520843957
 20
26.3173554871
 30
0.0
 40
3.175
 41
0.0
 71
     1
 72
     1
  1
±1.0
  7
SLDTEXTSTYLE0
 73
     1
 44
1.0
  0
MTEXT
  5
272
330
1F
100
AcDbEntity
  8
AM_BOR
100
AcDbMText
 10
348.1427415958
 20
34.7528408283
 30
0.0
 40
4.7625
 41
0.0
 71
     1
 72
     1
  1
連動線（出力線コード）
  7
SLDTEXTSTYLE0
 73
     1
 44
1.0
  0
MTEXT
  5
273
330
1F
100
AcDbEntity
  8
AM_BOR
100
AcDbMText
 10
332.8239425546
 20
44.9569240177
 30
0.0
 40
3.7041666667
 41
0.0
 71
     1
 72
     1
  1
SRCB01-100V
  7
SLDTEXTSTYLE0
 73
     1
 44
1.0
  0
MTEXT
  5
274
330
1F
100
AcDbEntity
  8
AM_BOR
100
AcDbMText
 10
263.2493047399
 20
30.627925852
 30
0.0
 40
2.1166666667
 41
0.0
 71
     1
 72
     1
  1
20200227
  7
SLDTEXTSTYLE0
 73
     1
 44
1.0
  0
MTEXT
  5
275
330
1F
100
AcDbEntity
  8
AM_BOR
100
AcDbMText
 10
251.2524222767
 20
30.627925852
 30
0.0
 40
2.1166666667
 41
0.0
 71
     1
 72
     1
  1
20200227
  7
SLDTEXTSTYLE0
 73
     1
 44
1.0
  0
MTEXT
  5
276
330
1F
100
AcDbEntity
  8
AM_BOR
100
AcDbMText
 10
239.269440633
 20
30.627925852
 30
0.0
 40
2.1166666667
 41
0.0
 71
     1
 72
     1
  1
20200227
  7
SLDTEXTSTYLE0
 73
     1
 44
1.0
  0
MTEXT
  5
277
330
1F
100
AcDbEntity
  8
AM_BOR
100
AcDbMText
 10
252.6635333708
 20
23.3417122468
 30
0.0
 40
3.175
 41
0.0
 71
     1
 72
     1
  1
白川
  7
SLDTEXTSTYLE0
 73
     1
 44
1.0
  0
MTEXT
  5
278
330
1F
100
AcDbEntity
  8
AM_BOR
100
AcDbMText
 10
240.680551727
 20
23.3417122468
 30
0.0
 40
3.175
 41
0.0
 71
     1
 72
     1
  1
佐瀬
  7
SLDTEXTSTYLE0
 73
     1
 44
1.0
  0
INSERT
  5
2A0
330
1F
100
AcDbEntity
  8
AM_BOR
100
AcDbBlockReference
  2
SW_TABLEANNOTATION_0
 10
319.994688041
 20
279.4085377792
 30
0.0
  0
INSERT
  5
2A4
330
1F
100
AcDbEntity
  8
0
  6
Continuous
 62
     7
100
AcDbBlockReference
  2
SW_BROKEN_VIEW_0
 10
0.0
 20
0.0
 30
0.0
  0
LINE
  5
2A5
330
1F
100
AcDbEntity
  8
0
  6
Continuous
 62
     7
370
    25
100
AcDbLine
 10
372.5302352434
 20
163.3535009638
 30
0.0
 11
378.0057563311
 21
163.8535010457
 31
0.0
  0
LINE
  5
2A6
330
1F
100
AcDbEntity
  8
0
  6
Continuous
 62
     7
370
    25
100
AcDbLine
 10
378.0057563311
 20
172.4535008721
 30
0.0
 11
372.5302352434
 21
172.9535009541
 31
0.0
  0
ARC
  5
2A7
330
1F
100
AcDbEntity
  8
0
  6
Continuous
 62
     7
370
    25
100
AcDbCircle
 10
377.8532950447
 20
170.7835063849
 30
0.0
 40
1.676939483455886
100
AcDbArc
 50
359.9998067477
 51
84.7836714057
  0
ARC
  5
2A8
330
1F
100
AcDbEntity
  8
0
  6
Continuous
 62
     7
370
    25
100
AcDbCircle
 10
377.8532959316
 20
165.5234947234
 30
0.0
 40
1.676938596615675
100
AcDbArc
 50
275.2163009339
 51
0.0002050025
  0
ARC
  5
2A9
330
1F
100
AcDbEntity
  8
0
  6
Continuous
 62
     7
370
    25
100
AcDbCircle
 10
390.7002297094
 20
168.1535007261
 30
0.0
 40
2.630000002686331
100
AcDbArc
 50
270.0001014466
 51
89.9998985534
  0
LINE
  5
2AA
330
1F
100
AcDbEntity
  8
0
  6
Continuous
 62
     7
370
    25
100
AcDbLine
 10
390.7002343661
 20
170.7835007288
 30
0.0
 11
379.5302345282
 21
170.7835007288
 31
0.0
  0
LINE
  5
2AB
330
1F
100
AcDbEntity
  8
0
  6
Continuous
 62
     7
370
    25
100
AcDbLine
 10
379.5302345282
 20
165.5235007234
 30
0.0
 11
390.7002343661
 21
165.5235007234
 31
0.0
  0
LINE
  5
2AC
330
1F
100
AcDbEntity
  8
0
  6
Continuous
 62
     7
370
    25
100
AcDbLine
 10
372.5302352434
 20
148.8535009153
 30
0.0
 11
378.0057563311
 21
149.3535009973
 31
0.0
  0
LINE
  5
2AD
330
1F
100
AcDbEntity
  8
0
  6
Continuous
 62
     7
370
    25
100
AcDbLine
 10
378.0057563311
 20
157.9535008237
 30
0.0
 11
372.5302352434
 21
158.4535009057
 31
0.0
  0
ARC
  5
2AE
330
1F
100
AcDbEntity
  8
0
  6
Continuous
 62
     7
370
    25
100
AcDbCircle
 10
377.8532959316
 20
156.283507146
 30
0.0
 40
1.676938596615619
100
AcDbArc
 50
359.9997949975
 51
84.7836990661
  0
ARC
  5
2AF
330
1F
100
AcDbEntity
  8
0
  6
Continuous
 62
     7
370
    25
100
AcDbCircle
 10
377.8532950447
 20
151.0234954845
 30
0.0
 40
1.676939483455932
100
AcDbArc
 50
275.2163285943
 51
0.0001932523
  0
LINE
  5
2B0
330
1F
100
AcDbEntity
  8
0
  6
Continuous
 62
     7
370
    25
100
AcDbLine
 10
390.7002343661
 20
156.283501146
 30
0.0
 11
379.5302345282
 21
156.283501146
 31
0.0
  0
LINE
  5
2B1
330
1F
100
AcDbEntity
  8
0
  6
Continuous
 62
     7
370
    25
100
AcDbLine
 10
379.5302345282
 20
151.0235011406
 30
0.0
 11
390.7002343661
 21
151.0235011406
 31
0.0
  0
ARC
  5
2B2
330
1F
100
AcDbEntity
  8
0
  6
Continuous
 62
     7
370
    25
100
AcDbCircle
 10
390.7002297094
 20
153.6535011433
 30
0.0
 40
2.630000002686331
100
AcDbArc
 50
270.0001014466
 51
89.9998985534
  0
LINE
  5
2B3
330
1F
100
AcDbEntity
  8
0
  6
Continuous
 62
     7
370
    25
100
AcDbLine
 10
328.7476136214
 20
164.9035011247
 30
0.0
 11
303.7476076609
 21
164.9035011247
 31
0.0
  0
LINE
  5
2B4
330
1F
100
AcDbEntity
  8
0
  6
Continuous
 62
     7
370
    25
100
AcDbLine
 10
303.7476076609
 20
162.4035009477
 30
0.0
 11
328.7476136214
 21
162.4035009477
 31
0.0
  0
LWPOLYLINE
  5
2B5
330
1F
100
AcDbEntity
  8
0
  6
Continuous
 62
     7
370
    25
100
AcDbPolyline
 90
        3
 70
   128
 43
0.0
 10
328.7476136214
 20
162.4035009477
 10
350.5444659716
 20
157.5597509105
 10
372.5302352434
 20
152.6740291916
  0
LWPOLYLINE
  5
2B6
330
1F
100
AcDbEntity
  8
0
  6
Continuous
 62
     7
370
    25
100
AcDbPolyline
 90
        3
 70
   128
 43
0.0
 10
372.5302352434
 20
155.1740291357
 10
351.9507183558
 20
159.7472509198
 10
328.7476136214
 20
164.9035011247
  0
LINE
  5
2B7
330
1F
100
AcDbEntity
  8
0
  6
Continuous
 62
     7
370
    25
100
AcDbLine
 10
372.5302352434
 20
169.4035013966
 30
0.0
 11
303.7476076609
 21
169.4035013966
 31
0.0
  0
LINE
  5
2B8
330
1F
100
AcDbEntity
  8
0
  6
Continuous
 62
     7
370
    25
100
AcDbLine
 10
303.7476076609
 20
166.9035009869
 30
0.0
 11
372.5302352434
 21
166.9035009869
 31
0.0
  0
LINE
  5
2B9
330
1F
100
AcDbEntity
  8
0
  6
Continuous
 62
     7
370
    25
100
AcDbLine
 10
303.7476076609
 20
169.9035005473
 30
0.0
 11
214.1462101466
 21
169.9035005473
 31
0.0
  0
LINE
  5
2BA
330
1F
100
AcDbEntity
  8
0
  6
Continuous
 62
     7
370
    25
100
AcDbLine
 10
213.3212222582
 20
161.9035009822
 30
0.0
 11
303.7476076609
 21
161.9035009822
 31
0.0
  0
LINE
  5
2BB
330
1F
100
AcDbEntity
  8
0
  6
Continuous
 62
     7
370
    25
100
AcDbLine
 10
372.5302352434
 20
163.8326568824
 30
0.0
 11
372.5302352434
 21
163.3535009638
 31
0.0
  0
LINE
  5
2BC
330
1F
100
AcDbEntity
  8
0
  6
Continuous
 62
     7
370
    25
100
AcDbLine
 10
372.5302352434
 20
172.9535009541
 30
0.0
 11
372.5302352434
 21
163.8326568824
 31
0.0
  0
LINE
  5
2BD
330
1F
100
AcDbEntity
  8
0
  6
Continuous
 62
     7
370
    25
100
AcDbLine
 10
379.5302345282
 20
165.7860382289
 30
0.0
 11
379.5302345282
 21
165.5235007234
 31
0.0
  0
LINE
  5
2BE
330
1F
100
AcDbEntity
  8
0
  6
Continuous
 62
     7
370
    25
100
AcDbLine
 10
379.5302345282
 20
170.7835007288
 30
0.0
 11
379.5302345282
 21
165.7860382289
 31
0.0
  0
LINE
  5
2BF
330
1F
100
AcDbEntity
  8
0
  6
Continuous
 62
     7
370
    25
100
AcDbLine
 10
372.5302352434
 20
149.3326570668
 30
0.0
 11
372.5302352434
 21
148.8535009153
 31
0.0
  0
LINE
  5
2C0
330
1F
100
AcDbEntity
  8
0
  6
Continuous
 62
     7
370
    25
100
AcDbLine
 10
372.5302352434
 20
158.4535009057
 30
0.0
 11
372.5302352434
 21
149.3326570668
 31
0.0
  0
LINE
  5
2C1
330
1F
100
AcDbEntity
  8
0
  6
Continuous
 62
     7
370
    25
100
AcDbLine
 10
379.5302345282
 20
151.2860381805
 30
0.0
 11
379.5302345282
 21
151.0235011406
 31
0.0
  0
LINE
  5
2C2
330
1F
100
AcDbEntity
  8
0
  6
Continuous
 62
     7
370
    25
100
AcDbLine
 10
379.5302345282
 20
156.283501146
 30
0.0
 11
379.5302345282
 21
151.2860381805
 31
0.0
  0
LINE
  5
2C3
330
1F
100
AcDbEntity
  8
0
  6
Continuous
 62
     7
370
    25
100
AcDbLine
 10
328.7476136214
 20
164.9035011247
 30
0.0
 11
328.7476136214
 21
162.4035009477
 31
0.0
  0
LINE
  5
2C4
330
1F
100
AcDbEntity
  8
0
  6
Continuous
 62
     7
370
    25
100
AcDbLine
 10
303.7476076609
 20
161.9035009822
 30
0.0
 11
303.7476076609
 21
169.9035005473
 31
0.0
  0
LINE
  5
2C5
330
1F
100
AcDbEntity
  8
0
  6
Continuous
 62
     8
370
    25
100
AcDbLine
 10
378.0057563311
 20
164.2827448264
 30
0.0
 11
378.0057563311
 21
163.8535010457
 31
0.0
  0
LINE
  5
2C6
330
1F
100
AcDbEntity
  8
0
  6
Continuous
 62
     8
370
    25
100
AcDbLine
 10
378.0057563311
 20
172.4535008721
 30
0.0
 11
378.0057563311
 21
164.2827448264
 31
0.0
  0
LINE
  5
2C7
330
1F
100
AcDbEntity
  8
0
  6
Continuous
 62
     8
370
    25
100
AcDbLine
 10
390.7002343661
 20
165.7860382289
 30
0.0
 11
390.7002343661
 21
165.5235007234
 31
0.0
  0
LINE
  5
2C8
330
1F
100
AcDbEntity
  8
0
  6
Continuous
 62
     8
370
    25
100
AcDbLine
 10
390.7002343661
 20
170.7835007288
 30
0.0
 11
390.7002343661
 21
165.7860382289
 31
0.0
  0
LINE
  5
2C9
330
1F
100
AcDbEntity
  8
0
  6
Continuous
 62
     8
370
    25
100
AcDbLine
 10
378.0057563311
 20
149.782744778
 30
0.0
 11
378.0057563311
 21
149.3535009973
 31
0.0
  0
LINE
  5
2CA
330
1F
100
AcDbEntity
  8
0
  6
Continuous
 62
     8
370
    25
100
AcDbLine
 10
378.0057563311
 20
157.9535008237
 30
0.0
 11
378.0057563311
 21
149.782744778
 31
0.0
  0
LINE
  5
2CB
330
1F
100
AcDbEntity
  8
0
  6
Continuous
 62
     8
370
    25
100
AcDbLine
 10
390.7002343661
 20
151.2860381805
 30
0.0
 11
390.7002343661
 21
151.0235011406
 31
0.0
  0
LINE
  5
2CC
330
1F
100
AcDbEntity
  8
0
  6
Continuous
 62
     8
370
    25
100
AcDbLine
 10
390.7002343661
 20
156.283501146
 30
0.0
 11
390.7002343661
 21
151.2860381805
 31
0.0
  0
LINE
  5
2CD
330
1F
100
AcDbEntity
  8
0
  6
Continuous
 62
     7
370
    25
100
AcDbLine
 10
80.2664101375
 20
165.6285008244
 30
0.0
 11
70.266389872
 21
165.6285008244
 31
0.0
  0
LINE
  5
2CE
330
1F
100
AcDbEntity
  8
0
  6
Continuous
 62
     7
370
    25
100
AcDbLine
 10
70.266389872
 20
161.678500957
 30
0.0
 11
73.2664108528
 21
161.678500957
 31
0.0
  0
LINE
  5
2CF
330
1F
100
AcDbEntity
  8
0
  6
Continuous
 62
     7
370
    25
100
AcDbLine
 10
80.2664101375
 20
156.6285007462
 30
0.0
 11
70.266389872
 21
156.6285007462
 31
0.0
  0
LINE
  5
2D0
330
1F
100
AcDbEntity
  8
0
  6
Continuous
 62
     7
370
    25
100
AcDbLine
 10
70.266389872
 20
152.6785004713
 30
0.0
 11
80.2664101375
 21
152.6785004713
 31
0.0
  0
LINE
  5
2D1
330
1F
100
AcDbEntity
  8
0
  6
Continuous
 62
     7
370
    25
100
AcDbLine
 10
109.3664109959
 20
164.9035011247
 30
0.0
 11
94.8663890613
 21
164.9035011247
 31
0.0
  0
LINE
  5
2D2
330
1F
100
AcDbEntity
  8
0
  6
Continuous
 62
     7
370
    25
100
AcDbLine
 10
94.8663890613
 20
162.4035009477
 30
0.0
 11
109.3664109959
 21
162.4035009477
 31
0.0
  0
LINE
  5
2D3
330
1F
100
AcDbEntity
  8
0
  6
Continuous
 62
     7
370
    25
100
AcDbLine
 10
109.3664109959
 20
169.4035013966
 30
0.0
 11
94.8663890613
 21
169.4035013966
 31
0.0
  0
LINE
  5
2D4
330
1F
100
AcDbEntity
  8
0
  6
Continuous
 62
     7
370
    25
100
AcDbLine
 10
94.8663890613
 20
166.9035009869
 30
0.0
 11
109.3664109959
 21
166.9035009869
 31
0.0
  0
LINE
  5
2D5
330
1F
100
AcDbEntity
  8
0
  6
Continuous
 62
     7
370
    25
100
AcDbLine
 10
204.146230246
 20
169.9035005473
 30
0.0
 11
109.3664109959
 21
169.9035005473
 31
0.0
  0
LINE
  5
2D6
330
1F
100
AcDbEntity
  8
0
  6
Continuous
 62
     7
370
    25
100
AcDbLine
 10
109.3664109959
 20
161.9035009822
 30
0.0
 11
203.3212125553
 21
161.9035009822
 31
0.0
  0
LINE
  5
2D7
330
1F
100
AcDbEntity
  8
0
  6
Continuous
 62
     7
370
    25
100
AcDbLine
 10
92.2664046539
 20
158.2035008647
 30
0.0
 11
90.7663941635
 21
158.2035008647
 31
0.0
  0
LINE
  5
2D8
330
1F
100
AcDbEntity
  8
0
  6
Continuous
 62
     7
370
    25
100
AcDbLine
 10
92.2664046539
 20
158.2035008647
 30
0.0
 11
92.2664046539
 21
164.6035009358
 31
0.0
  0
LINE
  5
2D9
330
1F
100
AcDbEntity
  8
0
  6
Continuous
 62
     7
370
    25
100
AcDbLine
 10
90.7663941635
 20
158.2035008647
 30
0.0
 11
90.7663941635
 21
164.6035009358
 31
0.0
  0
LINE
  5
2DA
330
1F
100
AcDbEntity
  8
0
  6
Continuous
 62
     7
370
    25
100
AcDbLine
 10
92.2664046539
 20
164.6035009358
 30
0.0
 11
90.7663941635
 21
164.6035009358
 31
0.0
  0
LINE
  5
2DB
330
1F
100
AcDbEntity
  8
0
  6
Continuous
 62
     7
370
    25
100
AcDbLine
 10
90.7663941635
 20
160.1035009549
 30
0.0
 11
73.2664108528
 21
160.1035009549
 31
0.0
  0
LINE
  5
2DC
330
1F
100
AcDbEntity
  8
0
  6
Continuous
 62
     7
370
    25
100
AcDbLine
 10
73.2664108528
 20
160.1035009549
 30
0.0
 11
73.2664108528
 21
162.7035009038
 31
0.0
  0
LINE
  5
2DD
330
1F
100
AcDbEntity
  8
0
  6
Continuous
 62
     7
370
    25
100
AcDbLine
 10
90.7663941635
 20
162.7035009038
 30
0.0
 11
73.2664108528
 21
162.7035009038
 31
0.0
  0
LINE
  5
2DE
330
1F
100
AcDbEntity
  8
0
  6
Continuous
 62
     7
370
    25
100
AcDbLine
 10
87.2664094223
 20
162.7035009038
 30
0.0
 11
87.2664094223
 21
164.6035009358
 31
0.0
  0
LINE
  5
2DF
330
1F
100
AcDbEntity
  8
0
  6
Continuous
 62
     7
370
    25
100
AcDbLine
 10
87.2664094223
 20
164.6035009358
 30
0.0
 11
90.7663941635
 21
164.6035009358
 31
0.0
  0
LINE
  5
2E0
330
1F
100
AcDbEntity
  8
0
  6
Continuous
 62
     7
370
    25
100
AcDbLine
 10
87.2664094223
 20
160.1035009549
 30
0.0
 11
87.2664094223
 21
158.2035008647
 31
0.0
  0
LINE
  5
2E1
330
1F
100
AcDbEntity
  8
0
  6
Continuous
 62
     7
370
    25
100
AcDbLine
 10
87.2664094223
 20
158.2035008647
 30
0.0
 11
90.7663941635
 21
158.2035008647
 31
0.0
  0
LINE
  5
2E2
330
1F
100
AcDbEntity
  8
0
  6
Continuous
 62
     7
370
    25
100
AcDbLine
 10
80.2664101375
 20
162.7035009038
 30
0.0
 11
80.2664101375
 21
164.6035009358
 31
0.0
  0
LINE
  5
2E3
330
1F
100
AcDbEntity
  8
0
  6
Continuous
 62
     7
370
    25
100
AcDbLine
 10
80.2664101375
 20
164.6035009358
 30
0.0
 11
87.2664094223
 21
164.6035009358
 31
0.0
  0
LINE
  5
2E4
330
1F
100
AcDbEntity
  8
0
  6
Continuous
 62
     7
370
    25
100
AcDbLine
 10
80.2664101375
 20
160.1035009549
 30
0.0
 11
80.2664101375
 21
158.2035008647
 31
0.0
  0
LINE
  5
2E5
330
1F
100
AcDbEntity
  8
0
  6
Continuous
 62
     7
370
    25
100
AcDbLine
 10
80.2664101375
 20
158.2035008647
 30
0.0
 11
87.2664094223
 21
158.2035008647
 31
0.0
  0
LINE
  5
2E6
330
1F
100
AcDbEntity
  8
0
  6
Continuous
 62
     7
370
    25
100
AcDbLine
 10
93.9663887276
 20
165.403500741
 30
0.0
 11
94.8663890613
 21
165.403500741
 31
0.0
  0
LINE
  5
2E7
330
1F
100
AcDbEntity
  8
0
  6
Continuous
 62
     7
370
    25
100
AcDbLine
 10
94.8663890613
 20
169.653500972
 30
0.0
 11
93.9663887276
 21
169.653500972
 31
0.0
  0
LINE
  5
2E8
330
1F
100
AcDbEntity
  8
0
  6
Continuous
 62
     7
370
    25
100
AcDbLine
 10
93.9663887276
 20
169.653500972
 30
0.0
 11
93.9663887276
 21
165.403500741
 31
0.0
  0
LINE
  5
2E9
330
1F
100
AcDbEntity
  8
0
  6
Continuous
 62
     7
370
    25
100
AcDbLine
 10
94.8663890613
 20
165.403500741
 30
0.0
 11
94.8663890613
 21
169.653500972
 31
0.0
  0
LINE
  5
2EA
330
1F
100
AcDbEntity
  8
0
  6
Continuous
 62
     7
370
    25
100
AcDbLine
 10
93.9663887276
 20
153.1535010614
 30
0.0
 11
94.8663890613
 21
153.1535010614
 31
0.0
  0
LINE
  5
2EB
330
1F
100
AcDbEntity
  8
0
  6
Continuous
 62
     7
370
    25
100
AcDbLine
 10
93.9663887276
 20
157.4035008267
 30
0.0
 11
93.9663887276
 21
153.1535010614
 31
0.0
  0
LINE
  5
2EC
330
1F
100
AcDbEntity
  8
0
  6
Continuous
 62
     7
370
    25
100
AcDbLine
 10
94.8663890613
 20
157.4035008267
 30
0.0
 11
93.9663887276
 21
157.4035008267
 31
0.0
  0
LINE
  5
2ED
330
1F
100
AcDbEntity
  8
0
  6
Continuous
 62
     7
370
    25
100
AcDbLine
 10
94.8663890613
 20
153.1535010614
 30
0.0
 11
94.8663890613
 21
157.4035008267
 31
0.0
  0
LINE
  5
2EE
330
1F
100
AcDbEntity
  8
0
  6
Continuous
 62
     7
370
    25
100
AcDbLine
 10
94.8663890613
 20
151.7535006456
 30
0.0
 11
80.2664101375
 21
151.7535006456
 31
0.0
  0
LINE
  5
2EF
330
1F
100
AcDbEntity
  8
0
  6
Continuous
 62
     7
370
    25
100
AcDbLine
 10
94.8663890613
 20
171.0535013877
 30
0.0
 11
80.2664101375
 21
171.0535013877
 31
0.0
  0
LINE
  5
2F0
330
1F
100
AcDbEntity
  8
0
  6
Continuous
 62
     7
370
    25
100
AcDbLine
 10
94.8663890613
 20
153.1535010614
 30
0.0
 11
94.8663890613
 21
151.7535006456
 31
0.0
  0
LINE
  5
2F1
330
1F
100
AcDbEntity
  8
0
  6
Continuous
 62
     7
370
    25
100
AcDbLine
 10
94.8663890613
 20
165.403500741
 30
0.0
 11
94.8663890613
 21
157.4035008267
 31
0.0
  0
LINE
  5
2F2
330
1F
100
AcDbEntity
  8
0
  6
Continuous
 62
     7
370
    25
100
AcDbLine
 10
94.8663890613
 20
171.0535013877
 30
0.0
 11
94.8663890613
 21
169.653500972
 31
0.0
  0
LINE
  5
2F3
330
1F
100
AcDbEntity
  8
0
  6
Continuous
 62
     7
370
    25
100
AcDbLine
 10
80.2664101375
 20
158.2035008647
 30
0.0
 11
80.2664101375
 21
151.7535006456
 31
0.0
  0
LINE
  5
2F4
330
1F
100
AcDbEntity
  8
0
  6
Continuous
 62
     7
370
    25
100
AcDbLine
 10
80.2664101375
 20
171.0535013877
 30
0.0
 11
80.2664101375
 21
164.6035009358
 31
0.0
  0
LINE
  5
2F5
330
1F
100
AcDbEntity
  8
0
  6
Continuous
 62
     7
370
    25
100
AcDbLine
 10
70.266389872
 20
166.1785008215
 30
0.0
 11
80.2664101375
 21
166.1785008215
 31
0.0
  0
LINE
  5
2F6
330
1F
100
AcDbEntity
  8
0
  6
Continuous
 62
     7
370
    25
100
AcDbLine
 10
70.266389872
 20
170.1285006307
 30
0.0
 11
80.2664101375
 21
170.1285006307
 31
0.0
  0
LINE
  5
2F7
330
1F
100
AcDbEntity
  8
0
  6
Continuous
 62
     7
370
    25
100
AcDbLine
 10
70.266389872
 20
166.1785008215
 30
0.0
 11
70.266389872
 21
170.1285006307
 31
0.0
  0
LINE
  5
2F8
330
1F
100
AcDbEntity
  8
0
  6
Continuous
 62
     7
370
    25
100
AcDbLine
 10
70.266389872
 20
157.1785009761
 30
0.0
 11
80.2664101375
 21
157.1785009761
 31
0.0
  0
LINE
  5
2F9
330
1F
100
AcDbEntity
  8
0
  6
Continuous
 62
     7
370
    25
100
AcDbLine
 10
70.266389872
 20
161.1285009308
 30
0.0
 11
73.2664108528
 21
161.1285009308
 31
0.0
  0
LINE
  5
2FA
330
1F
100
AcDbEntity
  8
0
  6
Continuous
 62
     7
370
    25
100
AcDbLine
 10
70.266389872
 20
157.1785009761
 30
0.0
 11
70.266389872
 21
161.1285009308
 31
0.0
  0
LINE
  5
2FB
330
1F
100
AcDbEntity
  8
0
  6
Continuous
 62
     7
370
    25
100
AcDbLine
 10
70.266389872
 20
161.678500957
 30
0.0
 11
70.266389872
 21
165.6285008244
 31
0.0
  0
LINE
  5
2FC
330
1F
100
AcDbEntity
  8
0
  6
Continuous
 62
     7
370
    25
100
AcDbLine
 10
70.266389872
 20
152.6785004713
 30
0.0
 11
70.266389872
 21
156.6285007462
 31
0.0
  0
LINE
  5
2FD
330
1F
100
AcDbEntity
  8
0
  6
Continuous
 62
     7
370
    25
100
AcDbLine
 10
109.3664109959
 20
161.9035009822
 30
0.0
 11
109.3664109959
 21
169.9035005473
 31
0.0
  0
DIMENSION
  5
2FE
330
1F
100
AcDbEntity
  8
AM_BOR
100
AcDbDimension
  2
_D
 10
94.866396935
 20
187.8740203091
 30
0.0
 11
82.566396935
 21
187.8740203091
 31
0.0
 70
   160
  1
<>
 71
     2
 42
-1.0
  3
SLDDIMSTYLE0
100
AcDbAlignedDimension
 13
70.266396935
 23
170.1285009347
 33
0.0
 14
94.866396935
 24
171.0535009347
 34
0.0
 50
0.0
100
AcDbRotatedDimension
  0
DIMENSION
  5
30F
330
1F
100
AcDbEntity
  8
AM_BOR
100
AcDbDimension
  2
_D_1
 10
390.7002226491
 20
132.2421290907
 30
0.0
 11
230.4833097921
 21
132.2421290907
 31
0.0
 70
   160
  1
650
 71
     2
 42
-1.0
  3
SLDDIMSTYLE0
100
AcDbAlignedDimension
 13
70.266396935
 23
153.1535009347
 33
0.0
 14
390.7002226491
 24
153.6535009347
 34
0.0
100
AcDbRotatedDimension
  0
INSERT
  5
31E
330
1F
100
AcDbEntity
  8
AM_BOR
100
AcDbBlockReference
  2
SW_NOTE_0
 10
109.1288782816
 20
191.7661097852
 30
0.0
  0
LEADER
  5
328
330
1F
100
AcDbEntity
  8
AM_BOR
100
AcDbLeader
  3
SLDDIMSTYLE1
 76
     2
 10
88.2004884447
 20
169.5230581937
 30
0.0
 10
109.1288782816
 20
191.7661097852
 30
0.0
  0
INSERT
  5
32E
330
1F
100
AcDbEntity
  8
AM_BOR
100
AcDbBlockReference
  2
SW_NOTE_1
 10
174.0453460621
 20
186.6348448687
 30
0.0
  0
LEADER
  5
32F
330
1F
100
AcDbEntity
  8
AM_BOR
100
AcDbLeader
  3
SLDDIMSTYLE1
 76
     2
 10
158.9969476446
 20
165.7846313053
 30
0.0
 10
174.0453460621
 20
186.6348448687
 30
0.0
  0
INSERT
  5
335
330
1F
100
AcDbEntity
  8
AM_BOR
100
AcDbBlockReference
  2
SW_NOTE_2
 10
378.3412887828
 20
188.6634844869
 30
0.0
  0
LEADER
  5
336
330
1F
100
AcDbEntity
  8
AM_BOR
100
AcDbLeader
  3
SLDDIMSTYLE1
 76
     2
 10
387.2746395202
 20
168.5884514716
 30
0.0
 10
378.3412887828
 20
188.6634844869
 30
0.0
  0
INSERT
  5
33B
330
1F
100
AcDbEntity
  8
AM_BOR
100
AcDbBlockReference
  2
SW_NOTE_3
 10
333.1939538072
 20
149.5895623893
 30
0.0
  0
LEADER
  5
33C
330
1F
100
AcDbEntity
  8
AM_BOR
100
AcDbLeader
  3
SLDDIMSTYLE1
 76
     2
 10
339.393871505
 20
161.1491153715
 30
0.0
 10
333.1939538072
 20
149.5895623893
 30
0.0
  0
INSERT
  5
341
330
1F
100
AcDbEntity
  8
AM_BOR
100
AcDbBlockReference
  2
SW_NOTE_4
 10
333.1939538072
 20
182.4057915062
 30
0.0
  0
LEADER
  5
342
330
1F
100
AcDbEntity
  8
AM_BOR
100
AcDbLeader
  3
SLDDIMSTYLE1
 76
     2
 10
338.6173034732
 20
168.3323696661
 30
0.0
 10
333.1939538072
 20
182.4057915062
 30
0.0
  0
LINE
  5
343
330
1F
100
AcDbEntity
  8
0
  6
HIDDEN
 62
     7
370
    18
100
AcDbLine
 10
203.7337226198
 20
173.0785009347
 30
0.0
 11
205.7337226198
 21
171.4910009347
 31
0.0
  0
LINE
  5
344
330
1F
100
AcDbEntity
  8
0
  6
HIDDEN
 62
     7
370
    18
100
AcDbLine
 10
205.7337226198
 20
171.4910009347
 30
0.0
 11
201.7337226198
 21
167.4910009347
 31
0.0
  0
LINE
  5
345
330
1F
100
AcDbEntity
  8
0
  6
HIDDEN
 62
     7
370
    18
100
AcDbLine
 10
201.7337226198
 20
167.4910009347
 30
0.0
 11
205.7337226198
 21
164.3160009347
 31
0.0
  0
LINE
  5
346
330
1F
100
AcDbEntity
  8
0
  6
HIDDEN
 62
     7
370
    18
100
AcDbLine
 10
205.7337226198
 20
164.3160009347
 30
0.0
 11
201.7337226198
 21
160.3160009347
 31
0.0
  0
LINE
  5
347
330
1F
100
AcDbEntity
  8
0
  6
HIDDEN
 62
     7
370
    18
100
AcDbLine
 10
201.7337226198
 20
160.3160009347
 30
0.0
 11
203.7337226198
 21
158.7285009347
 31
0.0
  0
LINE
  5
348
330
1F
100
AcDbEntity
  8
0
  6
HIDDEN
 62
     7
370
    18
100
AcDbLine
 10
213.7337226198
 20
173.0785009347
 30
0.0
 11
215.7337226198
 21
171.4910009347
 31
0.0
  0
LINE
  5
349
330
1F
100
AcDbEntity
  8
0
  6
HIDDEN
 62
     7
370
    18
100
AcDbLine
 10
215.7337226198
 20
171.4910009347
 30
0.0
 11
211.7337226198
 21
167.4910009347
 31
0.0
  0
LINE
  5
34A
330
1F
100
AcDbEntity
  8
0
  6
HIDDEN
 62
     7
370
    18
100
AcDbLine
 10
211.7337226198
 20
167.4910009347
 30
0.0
 11
215.7337226198
 21
164.3160009347
 31
0.0
  0
LINE
  5
34B
330
1F
100
AcDbEntity
  8
0
  6
HIDDEN
 62
     7
370
    18
100
AcDbLine
 10
215.7337226198
 20
164.3160009347
 30
0.0
 11
211.7337226198
 21
160.3160009347
 31
0.0
  0
LINE
  5
34C
330
1F
100
AcDbEntity
  8
0
  6
HIDDEN
 62
     7
370
    18
100
AcDbLine
 10
211.7337226198
 20
160.3160009347
 30
0.0
 11
213.7337226198
 21
158.7285009347
 31
0.0
  0
ARC
  5
34D
330
1F
100
AcDbEntity
  8
0
  6
Continuous
 62
     7
370
    25
100
AcDbCircle
 10
44.6330906987
 20
168.1535009347
 30
0.0
 40
4.197503660984526
100
AcDbArc
 50
339.2843267553
 51
200.7156732449
  0
LINE
  5
34E
330
1F
100
AcDbEntity
  8
0
  6
Continuous
 62
     7
370
    25
100
AcDbLine
 10
47.8042950415
 20
165.4035009347
 30
0.0
 11
47.5330906987
 21
165.11886142
 31
0.0
  0
ARC
  5
34F
330
1F
100
AcDbEntity
  8
0
  6
Continuous
 62
     7
370
    25
100
AcDbCircle
 10
44.6330906987
 20
168.1535009347
 30
0.0
 40
4.800000000000023
100
AcDbArc
 50
325.9233886706
 51
214.0766113296
  0
LINE
  5
350
330
1F
100
AcDbEntity
  8
0
  6
Continuous
 62
     7
370
    25
100
AcDbLine
 10
48.0560682037
 20
164.7885009347
 30
0.0
 11
47.8638026945
 21
164.6035009347
 31
0.0
  0
ARC
  5
351
330
1F
100
AcDbEntity
  8
0
  6
Continuous
 62
     7
370
    25
100
AcDbCircle
 10
44.6330906987
 20
153.6535009347
 30
0.0
 40
4.19750366098452
100
AcDbArc
 50
154.8637163021
 51
295.818807791
  0
ARC
  5
352
330
1F
100
AcDbEntity
  8
0
  6
Continuous
 62
     7
370
    25
100
AcDbCircle
 10
44.6330906987
 20
153.6535009347
 30
0.0
 40
4.197503660984518
100
AcDbArc
 50
295.818807791
 51
25.1362836977
  0
ARC
  5
353
330
1F
100
AcDbEntity
  8
0
  6
Continuous
 62
     7
370
    25
100
AcDbCircle
 10
44.6330906987
 20
153.6535009347
 30
0.0
 40
4.800000000000023
100
AcDbArc
 50
142.3415379937
 51
295.818807791
  0
LINE
  5
354
330
1F
100
AcDbEntity
  8
0
  6
Continuous
 62
     7
370
    25
100
AcDbLine
 10
47.5330906987
 20
157.4784192345
 30
0.0
 11
47.629338352
 21
157.4035009347
 31
0.0
  0
ARC
  5
355
330
1F
100
AcDbEntity
  8
0
  6
Continuous
 62
     7
370
    25
100
AcDbCircle
 10
44.6330906987
 20
153.6535009347
 30
0.0
 40
4.799999999999998
100
AcDbArc
 50
295.818807791
 51
37.6584620061
  0
ARC
  5
356
330
1F
100
AcDbEntity
  8
0
  6
Continuous
 62
     7
370
    25
100
AcDbCircle
 10
44.6330906987
 20
153.6535009347
 30
0.0
 40
2.029999999999991
100
AcDbArc
 50
249.3838933532
 51
290.6161066468
  0
CIRCLE
  5
357
330
1F
100
AcDbEntity
  8
0
  6
Continuous
 62
     7
370
    25
100
AcDbCircle
 10
44.6330906987
 20
163.6535009347
 30
0.0
 40
1.5
  0
CIRCLE
  5
358
330
1F
100
AcDbEntity
  8
0
  6
Continuous
 62
     7
370
    25
100
AcDbCircle
 10
44.6330906987
 20
163.6535009347
 30
0.0
 40
1.975000000000023
  0
LINE
  5
359
330
1F
100
AcDbEntity
  8
0
  6
Continuous
 62
     7
370
    25
100
AcDbLine
 10
42.6580906987
 20
157.1785009347
 30
0.0
 11
46.6080906987
 21
157.1785009347
 31
0.0
  0
CIRCLE
  5
35A
330
1F
100
AcDbEntity
  8
0
  6
Continuous
 62
     7
370
    25
100
AcDbCircle
 10
44.6330906987
 20
159.1535009347
 30
0.0
 40
1.499999999999972
  0
LINE
  5
35B
330
1F
100
AcDbEntity
  8
0
  6
Continuous
 62
     7
370
    25
100
AcDbLine
 10
46.6080906987
 20
161.1285009347
 30
0.0
 11
42.6580906987
 21
161.1285009347
 31
0.0
  0
LINE
  5
35C
330
1F
100
AcDbEntity
  8
0
  6
Continuous
 62
     7
370
    25
100
AcDbLine
 10
42.6580906987
 20
161.1285009347
 30
0.0
 11
42.6580906987
 21
157.1785009347
 31
0.0
  0
LINE
  5
35D
330
1F
100
AcDbEntity
  8
0
  6
Continuous
 62
     7
370
    25
100
AcDbLine
 10
46.6080906987
 20
157.1785009347
 30
0.0
 11
46.6080906987
 21
161.1285009347
 31
0.0
  0
LINE
  5
35E
330
1F
100
AcDbEntity
  8
0
  6
Continuous
 62
     7
370
    25
100
AcDbLine
 10
46.6080906987
 20
170.1285009347
 30
0.0
 11
42.6580906987
 21
170.1285009347
 31
0.0
  0
LINE
  5
35F
330
1F
100
AcDbEntity
  8
0
  6
Continuous
 62
     7
370
    25
100
AcDbLine
 10
46.6080906987
 20
166.1785009347
 30
0.0
 11
46.6080906987
 21
170.1285009347
 31
0.0
  0
CIRCLE
  5
360
330
1F
100
AcDbEntity
  8
0
  6
Continuous
 62
     7
370
    25
100
AcDbCircle
 10
44.6330906987
 20
168.1535009347
 30
0.0
 40
1.5
  0
LINE
  5
361
330
1F
100
AcDbEntity
  8
0
  6
Continuous
 62
     7
370
    25
100
AcDbLine
 10
42.6580906987
 20
170.1285009347
 30
0.0
 11
42.6580906987
 21
166.1785009347
 31
0.0
  0
LINE
  5
362
330
1F
100
AcDbEntity
  8
0
  6
Continuous
 62
     7
370
    25
100
AcDbLine
 10
42.6580906987
 20
166.1785009347
 30
0.0
 11
46.6080906987
 21
166.1785009347
 31
0.0
  0
CIRCLE
  5
363
330
1F
100
AcDbEntity
  8
0
  6
Continuous
 62
     7
370
    25
100
AcDbCircle
 10
44.6330906987
 20
154.6535009347
 30
0.0
 40
1.5
  0
CIRCLE
  5
364
330
1F
100
AcDbEntity
  8
0
  6
Continuous
 62
     7
370
    25
100
AcDbCircle
 10
44.6330906987
 20
154.6535009347
 30
0.0
 40
1.974999999999994
  0
LINE
  5
365
330
1F
100
AcDbEntity
  8
0
  6
Continuous
 62
     7
370
    25
100
AcDbLine
 10
50.7330906987
 20
160.1035009347
 30
0.0
 11
47.5330906987
 21
160.1035009347
 31
0.0
  0
LINE
  5
366
330
1F
100
AcDbEntity
  8
0
  6
Continuous
 62
     7
370
    25
100
AcDbLine
 10
47.5330906987
 20
160.1035009347
 30
0.0
 11
47.5330906987
 21
162.7035009347
 31
0.0
  0
LINE
  5
367
330
1F
100
AcDbEntity
  8
0
  6
Continuous
 62
     7
370
    25
100
AcDbLine
 10
50.7330906987
 20
160.1035009347
 30
0.0
 11
50.7330906987
 21
162.7035009347
 31
0.0
  0
LINE
  5
368
330
1F
100
AcDbEntity
  8
0
  6
Continuous
 62
     7
370
    25
100
AcDbLine
 10
50.7330906987
 20
162.7035009347
 30
0.0
 11
47.5330906987
 21
162.7035009347
 31
0.0
  0
LINE
  5
369
330
1F
100
AcDbEntity
  8
0
  6
Continuous
 62
     7
370
    25
100
AcDbLine
 10
47.5330906987
 20
163.3035009347
 30
0.0
 11
47.5330906987
 21
162.7035009347
 31
0.0
  0
LINE
  5
36A
330
1F
100
AcDbEntity
  8
0
  6
Continuous
 62
     7
370
    25
100
AcDbLine
 10
47.5330906987
 20
160.1035009347
 30
0.0
 11
47.5330906987
 21
159.5035009347
 31
0.0
  0
LINE
  5
36B
330
1F
100
AcDbEntity
  8
0
  6
Continuous
 62
     7
370
    25
100
AcDbLine
 10
48.5830906987
 20
159.5035009347
 30
0.0
 11
47.5330906987
 21
159.5035009347
 31
0.0
  0
LINE
  5
36C
330
1F
100
AcDbEntity
  8
0
  6
Continuous
 62
     7
370
    25
100
AcDbLine
 10
49.8330906987
 20
160.1035009347
 30
0.0
 11
49.8330906987
 21
158.2035009347
 31
0.0
  0
LINE
  5
36D
330
1F
100
AcDbEntity
  8
0
  6
Continuous
 62
     7
370
    25
100
AcDbLine
 10
49.8330906987
 20
158.2035009347
 30
0.0
 11
47.5330906987
 21
158.2035009347
 31
0.0
  0
LINE
  5
36E
330
1F
100
AcDbEntity
  8
0
  6
Continuous
 62
     7
370
    25
100
AcDbLine
 10
47.5330906987
 20
158.2035009347
 30
0.0
 11
47.5330906987
 21
151.7535009347
 31
0.0
  0
LINE
  5
36F
330
1F
100
AcDbEntity
  8
0
  6
Continuous
 62
     7
370
    25
100
AcDbLine
 10
47.5330906987
 20
151.7535009347
 30
0.0
 11
41.7330906987
 21
151.7535009347
 31
0.0
  0
LINE
  5
370
330
1F
100
AcDbEntity
  8
0
  6
Continuous
 62
     7
370
    25
100
AcDbLine
 10
41.7330906987
 20
171.0535009347
 30
0.0
 11
41.7330906987
 21
151.7535009347
 31
0.0
  0
LINE
  5
371
330
1F
100
AcDbEntity
  8
0
  6
Continuous
 62
     7
370
    25
100
AcDbLine
 10
47.5330906987
 20
171.0535009347
 30
0.0
 11
41.7330906987
 21
171.0535009347
 31
0.0
  0
LINE
  5
372
330
1F
100
AcDbEntity
  8
0
  6
Continuous
 62
     7
370
    25
100
AcDbLine
 10
47.5330906987
 20
171.0535009347
 30
0.0
 11
47.5330906987
 21
164.6035009347
 31
0.0
  0
LINE
  5
373
330
1F
100
AcDbEntity
  8
0
  6
Continuous
 62
     7
370
    25
100
AcDbLine
 10
49.8330906987
 20
164.6035009347
 30
0.0
 11
47.5330906987
 21
164.6035009347
 31
0.0
  0
LINE
  5
374
330
1F
100
AcDbEntity
  8
0
  6
Continuous
 62
     7
370
    25
100
AcDbLine
 10
49.8330906987
 20
162.7035009347
 30
0.0
 11
49.8330906987
 21
164.6035009347
 31
0.0
  0
LINE
  5
375
330
1F
100
AcDbEntity
  8
0
  6
Continuous
 62
     7
370
    25
100
AcDbLine
 10
48.5830906987
 20
163.3035009347
 30
0.0
 11
47.5330906987
 21
163.3035009347
 31
0.0
  0
LINE
  5
376
330
1F
100
AcDbEntity
  8
0
  6
Continuous
 62
     7
370
    25
100
AcDbLine
 10
48.5830906987
 20
163.3035009347
 30
0.0
 11
48.5830906987
 21
162.7035009347
 31
0.0
  0
LINE
  5
377
330
1F
100
AcDbEntity
  8
0
  6
Continuous
 62
     7
370
    25
100
AcDbLine
 10
48.5830906987
 20
159.5035009347
 30
0.0
 11
48.5830906987
 21
160.1035009347
 31
0.0
  0
LINE
  5
378
330
1F
100
AcDbEntity
  8
0
  6
Continuous
 62
     7
370
    25
100
AcDbLine
 10
50.6411293676
 20
162.7035009347
 30
0.0
 11
50.6411293676
 21
164.6035009347
 31
0.0
  0
LINE
  5
379
330
1F
100
AcDbEntity
  8
0
  6
Continuous
 62
     7
370
    25
100
AcDbLine
 10
49.8330906987
 20
164.6035009347
 30
0.0
 11
50.6411293676
 21
164.6035009347
 31
0.0
  0
LINE
  5
37A
330
1F
100
AcDbEntity
  8
0
  6
Continuous
 62
     7
370
    25
100
AcDbLine
 10
50.6411293676
 20
160.1035009347
 30
0.0
 11
50.6411293676
 21
158.2035009347
 31
0.0
  0
LINE
  5
37B
330
1F
100
AcDbEntity
  8
0
  6
Continuous
 62
     7
370
    25
100
AcDbLine
 10
49.8330906987
 20
158.2035009347
 30
0.0
 11
50.6411293676
 21
158.2035009347
 31
0.0
  0
LINE
  5
37C
330
1F
100
AcDbEntity
  8
0
  6
Continuous
 62
     7
370
    25
100
AcDbLine
 10
51.2330906987
 20
158.2035009347
 30
0.0
 11
51.2330906987
 21
164.6035009347
 31
0.0
  0
LINE
  5
37D
330
1F
100
AcDbEntity
  8
0
  6
Continuous
 62
     7
370
    25
100
AcDbLine
 10
51.2330906987
 20
158.2035009347
 30
0.0
 11
50.6411293676
 21
158.2035009347
 31
0.0
  0
LINE
  5
37E
330
1F
100
AcDbEntity
  8
0
  6
Continuous
 62
     7
370
    25
100
AcDbLine
 10
51.2330906987
 20
164.6035009347
 30
0.0
 11
50.6411293676
 21
164.6035009347
 31
0.0
  0
LINE
  5
37F
330
1F
100
AcDbEntity
  8
0
  6
Continuous
 62
     7
370
    25
100
AcDbLine
 10
48.4330906987
 20
169.6535009347
 30
0.0
 11
47.5330906987
 21
169.6535009347
 31
0.0
  0
LINE
  5
380
330
1F
100
AcDbEntity
  8
0
  6
Continuous
 62
     7
370
    25
100
AcDbLine
 10
48.4330906987
 20
169.6535009347
 30
0.0
 11
48.4330906987
 21
165.4035009347
 31
0.0
  0
LINE
  5
381
330
1F
100
AcDbEntity
  8
0
  6
Continuous
 62
     7
370
    25
100
AcDbLine
 10
48.4330906987
 20
165.4035009347
 30
0.0
 11
47.5330906987
 21
165.4035009347
 31
0.0
  0
LINE
  5
382
330
1F
100
AcDbEntity
  8
0
  6
Continuous
 62
     7
370
    25
100
AcDbLine
 10
41.7330906987
 20
153.1535009347
 30
0.0
 11
40.8330906987
 21
153.1535009347
 31
0.0
  0
LINE
  5
383
330
1F
100
AcDbEntity
  8
0
  6
Continuous
 62
     7
370
    25
100
AcDbLine
 10
40.8330906987
 20
169.6535009347
 30
0.0
 11
40.8330906987
 21
153.1535009347
 31
0.0
  0
LINE
  5
384
330
1F
100
AcDbEntity
  8
0
  6
Continuous
 62
     7
370
    25
100
AcDbLine
 10
41.7330906987
 20
169.6535009347
 30
0.0
 11
40.8330906987
 21
169.6535009347
 31
0.0
  0
LINE
  5
385
330
1F
100
AcDbEntity
  8
0
  6
Continuous
 62
     7
370
    25
100
AcDbLine
 10
48.4330906987
 20
157.4035009347
 30
0.0
 11
47.5330906987
 21
157.4035009347
 31
0.0
  0
LINE
  5
386
330
1F
100
AcDbEntity
  8
0
  6
Continuous
 62
     7
370
    25
100
AcDbLine
 10
48.4330906987
 20
153.1535009347
 30
0.0
 11
47.5330906987
 21
153.1535009347
 31
0.0
  0
LINE
  5
387
330
1F
100
AcDbEntity
  8
0
  6
Continuous
 62
     7
370
    25
100
AcDbLine
 10
48.4330906987
 20
157.4035009347
 30
0.0
 11
48.4330906987
 21
153.1535009347
 31
0.0
  0
ARC
  5
388
330
1F
100
AcDbEntity
  8
0
  6
Continuous
 62
     7
370
    25
100
AcDbCircle
 10
44.6330906987
 20
165.9035009347
 30
0.0
 40
3.999999999999999
100
AcDbArc
 50
161.8051276612
 51
198.1948723388
  0
LINE
  5
389
330
1F
100
AcDbEntity
  8
0
  6
Continuous
 62
     7
370
    25
100
AcDbLine
 10
47.5330906987
 20
163.1485054719
 30
0.0
 11
47.6728275294
 21
163.3035009347
 31
0.0
  0
ARC
  5
38A
330
1F
100
AcDbEntity
  8
0
  6
Continuous
 62
     7
370
    25
100
AcDbCircle
 10
44.6330906987
 20
165.9035009347
 30
0.0
 40
4.000000000000013
100
AcDbArc
 50
341.0344250111
 51
18.1948723388
  0
LWPOLYLINE
  5
38B
330
1F
100
AcDbEntity
  8
0
  6
Continuous
 62
     7
370
    25
100
AcDbPolyline
 90
        3
 70
   128
 43
0.0
 10
47.990172765
 20
164.6035009347
 10
48.0568941574
 20
164.791039755
 10
48.1981993927
 20
165.4035009347
  0
LWPOLYLINE
  5
38C
330
1F
100
AcDbEntity
  8
0
  6
Continuous
 62
     8
370
    25
100
AcDbPolyline
 90
        3
 70
   128
 43
0.0
 10
41.2480644729
 20
169.6535009347
 10
41.369502861
 20
169.9020423198
 10
41.7330906987
 20
170.4553268512
  0
ARC
  5
38D
330
1F
100
AcDbEntity
  8
0
  6
Continuous
 62
     8
370
    25
100
AcDbCircle
 10
44.6330906987
 20
168.1535009347
 30
0.0
 40
3.702485995868015
100
AcDbArc
 50
51.5598061734
 51
128.4401938266
  0
LWPOLYLINE
  5
38E
330
1F
100
AcDbEntity
  8
0
  6
Continuous
 62
     8
370
    25
100
AcDbPolyline
 90
        3
 70
   128
 43
0.0
 10
47.5330906987
 20
170.4553268511
 10
47.9659791951
 20
169.7660321189
 10
48.0181169245
 20
169.6535009347
  0
ARC
  5
38F
330
1F
100
AcDbEntity
  8
0
  6
Continuous
 62
     8
370
    25
100
AcDbCircle
 10
44.6330906987
 20
153.6535009347
 30
0.0
 40
3.702485995868027
100
AcDbArc
 50
187.7611873352
 51
295.818807791
  0
ARC
  5
390
330
1F
100
AcDbEntity
  8
0
  6
Continuous
 62
     8
370
    25
100
AcDbCircle
 10
44.6330906987
 20
153.6535009347
 30
0.0
 40
3.702485995868027
100
AcDbArc
 50
295.818807791
 51
352.2388126648
  0
INSERT
  5
395
330
1F
100
AcDbEntity
  8
AM_BOR
100
AcDbBlockReference
  2
SW_NOTE_5
 10
52.7816229117
 20
184.5537628666
 30
0.0
  0
LEADER
  5
396
330
1F
100
AcDbEntity
  8
AM_BOR
100
AcDbLeader
  3
SLDDIMSTYLE1
 76
     2
 10
44.3062339177
 20
167.9929770679
 30
0.0
 10
52.7816229117
 20
184.5537628666
 30
0.0
  0
INSERT
  5
39B
330
1F
100
AcDbEntity
  8
AM_BOR
100
AcDbBlockReference
  2
SW_NOTE_6
 10
56.9582338902
 20
171.9045981888
 30
0.0
  0
LEADER
  5
39C
330
1F
100
AcDbEntity
  8
AM_BOR
100
AcDbLeader
  3
SLDDIMSTYLE1
 76
     2
 10
44.6408690513
 20
163.6355280659
 30
0.0
 10
56.9582338902
 20
171.9045981888
 30
0.0
  0
ENDSEC
  0
SECTION
  2
OBJECTS
  0
DICTIONARY
  5
C
330
0
100
AcDbDictionary
281
     1
  3
ACAD_GROUP
350
D
  3
ACAD_LAYOUT
350
1A
  3
ACAD_MLINESTYLE
350
17
  3
ACAD_PLOTSETTINGS
350
19
  3
ACAD_PLOTSTYLENAME
350
E
  3
ACAD_SCALELIST
350
47
  0
DICTIONARY
  5
D
102
{ACAD_REACTORS
330
C
102
}
330
C
100
AcDbDictionary
281
     1
  0
DICTIONARY
  5
1A
102
{ACAD_REACTORS
330
C
102
}
330
C
100
AcDbDictionary
281
     1
  3
Layout1
350
1E
  3
Layout2
350
26
  3
Model
350
22
  0
DICTIONARY
  5
17
102
{ACAD_REACTORS
330
C
102
}
330
C
100
AcDbDictionary
281
     1
  3
Standard
350
18
  0
DICTIONARY
  5
19
102
{ACAD_REACTORS
330
C
102
}
330
C
100
AcDbDictionary
281
     1
  0
ACDBDICTIONARYWDFLT
  5
E
102
{ACAD_REACTORS
330
C
102
}
330
C
100
AcDbDictionary
281
     1
  3
Normal
350
F
100
AcDbDictionaryWithDefault
340
F
  0
DICTIONARY
  5
47
102
{ACAD_REACTORS
330
C
102
}
330
C
100
AcDbDictionary
281
     1
  3
A0
350
48
  3
A1
350
49
  3
A2
350
4A
  3
A3
350
4B
  3
A4
350
4C
  3
A5
350
4D
  3
A6
350
4E
  3
A7
350
4F
  3
A8
350
50
  3
A9
350
51
  3
B0
350
52
  3
B1
350
53
  3
B2
350
54
  3
B3
350
55
  3
B4
350
56
  3
B5
350
57
  3
B6
350
58
  3
B7
350
59
  3
B8
350
5A
  3
B9
350
5B
  3
C0
350
5C
  3
C1
350
5D
  3
C2
350
5E
  3
C3
350
5F
  3
C4
350
60
  3
C5
350
61
  3
C6
350
62
  3
C7
350
63
  3
C8
350
64
  3
C9
350
65
  3
D0
350
66
  3
D1
350
67
  3
D2
350
68
  0
LAYOUT
  5
1E
102
{ACAD_REACTORS
330
1A
102
}
330
1A
100
AcDbPlotSettings
  1

  2
none_device
  4

  6

 40
0.0
 41
0.0
 42
0.0
 43
0.0
 44
0.0
 45
0.0
 46
0.0
 47
0.0
 48
0.0
 49
0.0
140
0.0
141
0.0
142
1.0
143
1.0
 70
   688
 72
     1
 73
     0
 74
     5
  7

 75
    16
147
1.0
148
0.0
149
0.0
100
AcDbLayout
  1
Layout1
 70
     1
 71
     1
 10
0.0
 20
0.0
 11
420.0
 21
297.0
 12
0.0
 22
0.0
 32
0.0
 14
1.0000000000E+20
 24
1.0000000000E+20
 34
1.0000000000E+20
 15
-1.0000000000E+20
 25
-1.0000000000E+20
 35
-1.0000000000E+20
146
0.0
 13
0.0
 23
0.0
 33
0.0
 16
1.0
 26
0.0
 36
0.0
 17
0.0
 27
1.0
 37
0.0
 76
     0
330
1B
  0
LAYOUT
  5
26
102
{ACAD_REACTORS
330
1A
102
}
330
1A
100
AcDbPlotSettings
  1

  2
none_device
  4

  6

 40
0.0
 41
0.0
 42
0.0
 43
0.0
 44
0.0
 45
0.0
 46
0.0
 47
0.0
 48
0.0
 49
0.0
140
0.0
141
0.0
142
1.0
143
1.0
 70
   688
 72
     1
 73
     0
 74
     5
  7

 75
    16
147
1.0
148
0.0
149
0.0
100
AcDbLayout
  1
Layout2
 70
     1
 71
     2
 10
0.0
 20
0.0
 11
0.0
 21
0.0
 12
0.0
 22
0.0
 32
0.0
 14
0.0
 24
0.0
 34
0.0
 15
0.0
 25
0.0
 35
0.0
146
0.0
 13
0.0
 23
0.0
 33
0.0
 16
1.0
 26
0.0
 36
0.0
 17
0.0
 27
1.0
 37
0.0
 76
     0
330
23
  0
LAYOUT
  5
22
102
{ACAD_REACTORS
330
1A
102
}
330
1A
100
AcDbPlotSettings
  1

  2
none_device
  4
Letter_(8.50_x_11.00_Inches)
  6

 40
6.35
 41
6.35
 42
6.35000508
 43
6.35000508
 44
215.9
 45
279.4
 46
0.0
 47
0.0
 48
0.0
 49
0.0
140
0.0
141
0.0
142
1.0
143
1.0
 70
  1712
 72
     1
 73
     0
 74
     0
  7

 75
     0
147
1.0
148
0.0
149
0.0
100
AcDbLayout
  1
Model
 70
     1
 71
     0
 10
0.0
 20
0.0
 11
420.0
 21
297.0
 12
0.0
 22
0.0
 32
0.0
 14
0.0
 24
0.0
 34
0.0
 15
420.0
 25
297.0
 35
0.0
146
0.0
 13
0.0
 23
0.0
 33
0.0
 16
1.0
 26
0.0
 36
0.0
 17
0.0
 27
1.0
 37
0.0
 76
     0
330
1F
331
29
  0
MLINESTYLE
  5
18
102
{ACAD_REACTORS
330
17
102
}
330
17
100
AcDbMlineStyle
  2
Standard
 70
     0
  3

 62
   256
 51
90.0
 52
90.0
 71
     2
 49
0.5
 62
   256
  6
BYLAYER
 49
-0.5
 62
   256
  6
BYLAYER
  0
ACDBPLACEHOLDER
  5
F
102
{ACAD_REACTORS
330
E
102
}
330
E
  0
SCALE
  5
48
102
{ACAD_REACTORS
330
47
102
}
330
47
100
AcDbScale
 70
     0
300
1:1
140
1.0
141
1.0
290
     1
  0
SCALE
  5
49
102
{ACAD_REACTORS
330
47
102
}
330
47
100
AcDbScale
 70
     0
300
1:2
140
1.0
141
2.0
290
     0
  0
SCALE
  5
4A
102
{ACAD_REACTORS
330
47
102
}
330
47
100
AcDbScale
 70
     0
300
1:4
140
1.0
141
4.0
290
     0
  0
SCALE
  5
4B
102
{ACAD_REACTORS
330
47
102
}
330
47
100
AcDbScale
 70
     0
300
1:5
140
1.0
141
5.0
290
     0
  0
SCALE
  5
4C
102
{ACAD_REACTORS
330
47
102
}
330
47
100
AcDbScale
 70
     0
300
1:8
140
1.0
141
8.0
290
     0
  0
SCALE
  5
4D
102
{ACAD_REACTORS
330
47
102
}
330
47
100
AcDbScale
 70
     0
300
1:10
140
1.0
141
10.0
290
     0
  0
SCALE
  5
4E
102
{ACAD_REACTORS
330
47
102
}
330
47
100
AcDbScale
 70
     0
300
1:16
140
1.0
141
16.0
290
     0
  0
SCALE
  5
4F
102
{ACAD_REACTORS
330
47
102
}
330
47
100
AcDbScale
 70
     0
300
1:20
140
1.0
141
20.0
290
     0
  0
SCALE
  5
50
102
{ACAD_REACTORS
330
47
102
}
330
47
100
AcDbScale
 70
     0
300
1:30
140
1.0
141
30.0
290
     0
  0
SCALE
  5
51
102
{ACAD_REACTORS
330
47
102
}
330
47
100
AcDbScale
 70
     0
300
1:40
140
1.0
141
40.0
290
     0
  0
SCALE
  5
52
102
{ACAD_REACTORS
330
47
102
}
330
47
100
AcDbScale
 70
     0
300
1:50
140
1.0
141
50.0
290
     0
  0
SCALE
  5
53
102
{ACAD_REACTORS
330
47
102
}
330
47
100
AcDbScale
 70
     0
300
1:100
140
1.0
141
100.0
290
     0
  0
SCALE
  5
54
102
{ACAD_REACTORS
330
47
102
}
330
47
100
AcDbScale
 70
     0
300
2:1
140
2.0
141
1.0
290
     0
  0
SCALE
  5
55
102
{ACAD_REACTORS
330
47
102
}
330
47
100
AcDbScale
 70
     0
300
4:1
140
4.0
141
1.0
290
     0
  0
SCALE
  5
56
102
{ACAD_REACTORS
330
47
102
}
330
47
100
AcDbScale
 70
     0
300
8:1
140
8.0
141
1.0
290
     0
  0
SCALE
  5
57
102
{ACAD_REACTORS
330
47
102
}
330
47
100
AcDbScale
 70
     0
300
10:1
140
10.0
141
1.0
290
     0
  0
SCALE
  5
58
102
{ACAD_REACTORS
330
47
102
}
330
47
100
AcDbScale
 70
     0
300
100:1
140
100.0
141
1.0
290
     0
  0
SCALE
  5
59
102
{ACAD_REACTORS
330
47
102
}
330
47
100
AcDbScale
 70
     0
300
1/128" = 1'-0"
140
0.0078125
141
12.0
290
     0
  0
SCALE
  5
5A
102
{ACAD_REACTORS
330
47
102
}
330
47
100
AcDbScale
 70
     0
300
1/64" = 1'-0"
140
0.015625
141
12.0
290
     0
  0
SCALE
  5
5B
102
{ACAD_REACTORS
330
47
102
}
330
47
100
AcDbScale
 70
     0
300
1/32" = 1'-0"
140
0.03125
141
12.0
290
     0
  0
SCALE
  5
5C
102
{ACAD_REACTORS
330
47
102
}
330
47
100
AcDbScale
 70
     0
300
1/16" = 1'-0"
140
0.0625
141
12.0
290
     0
  0
SCALE
  5
5D
102
{ACAD_REACTORS
330
47
102
}
330
47
100
AcDbScale
 70
     0
300
3/32" = 1'-0"
140
0.09375
141
12.0
290
     0
  0
SCALE
  5
5E
102
{ACAD_REACTORS
330
47
102
}
330
47
100
AcDbScale
 70
     0
300
1/8" = 1'-0"
140
0.125
141
12.0
290
     0
  0
SCALE
  5
5F
102
{ACAD_REACTORS
330
47
102
}
330
47
100
AcDbScale
 70
     0
300
3/16" = 1'-0"
140
0.1875
141
12.0
290
     0
  0
SCALE
  5
60
102
{ACAD_REACTORS
330
47
102
}
330
47
100
AcDbScale
 70
     0
300
1/4" = 1'-0"
140
0.25
141
12.0
290
     0
  0
SCALE
  5
61
102
{ACAD_REACTORS
330
47
102
}
330
47
100
AcDbScale
 70
     0
300
3/8" = 1'-0"
140
0.375
141
12.0
290
     0
  0
SCALE
  5
62
102
{ACAD_REACTORS
330
47
102
}
330
47
100
AcDbScale
 70
     0
300
1/2" = 1'-0"
140
0.5
141
12.0
290
     0
  0
SCALE
  5
63
102
{ACAD_REACTORS
330
47
102
}
330
47
100
AcDbScale
 70
     0
300
3/4" = 1'-0"
140
0.75
141
12.0
290
     0
  0
SCALE
  5
64
102
{ACAD_REACTORS
330
47
102
}
330
47
100
AcDbScale
 70
     0
300
1" = 1'-0"
140
1.0
141
12.0
290
     0
  0
SCALE
  5
65
102
{ACAD_REACTORS
330
47
102
}
330
47
100
AcDbScale
 70
     0
300
1-1/2" = 1'-0"
140
1.5
141
12.0
290
     0
  0
SCALE
  5
66
102
{ACAD_REACTORS
330
47
102
}
330
47
100
AcDbScale
 70
     0
300
3" = 1'-0"
140
3.0
141
12.0
290
     0
  0
SCALE
  5
67
102
{ACAD_REACTORS
330
47
102
}
330
47
100
AcDbScale
 70
     0
300
6" = 1'-0"
140
6.0
141
12.0
290
     0
  0
SCALE
  5
68
102
{ACAD_REACTORS
330
47
102
}
330
47
100
AcDbScale
 70
     0
300
1'-0" = 1'-0"
140
12.0
141
12.0
290
     0
  0
ENDSEC
  0
EOF
